<?xml version="1.0" standalone="no"?>
<!DOCTYPE svg PUBLIC "-//W3C//DTD SVG 1.1//EN" "http://www.w3.org/Graphics/SVG/1.1/DTD/svg11.dtd" >
<svg xmlns="http://www.w3.org/2000/svg">
<metadata>Generated by IcoMoon</metadata>
<defs>
<font id="icomoon" horiz-adv-x="1024">
<font-face units-per-em="1024" ascent="960" descent="-64" />
<missing-glyph horiz-adv-x="1024" />
<glyph unicode="&#x20;" horiz-adv-x="512" d="" />
<glyph unicode="&#xe600;" glyph-name="uniE600" d="M894.144 830.336c-80.384 80.256-211.904 103.552-343.616-27.84-93.504-93.312-149.312-227.52-145.728-326.592l-122.368-122.112c-50.368 50.176-131.776 50.304-181.952 0.256-50.176-49.984-50.048-131.264 0.256-181.504 27.584-27.456 64.256-38.528 100.224-35.968-2.496-35.648 8.576-71.936 36.032-99.264 50.304-49.92 131.776-50.048 181.888-0.256s50.048 130.624-0.256 180.544c0 0-0.064 0-0.064 0l124.352 124.032c99.712-2.624 233.344 52.032 325.824 144.32 131.776 131.456 105.92 264.128 25.408 344.384zM359.232 249.088c0 0-0.064 0 0 0l-31.744-31.616 42.624-42.56c13.376-11.776 22.208-28.416 22.272-47.552 0.128-35.328-28.48-63.872-63.936-63.744-35.392 0.128-64.192 28.864-64.32 64.192-0.064 17.28 6.912 32.768 17.984 44.224l-45.952 45.888c-11.648-11.328-27.392-18.368-44.864-18.432-35.648-0.064-64.448 28.672-64.32 64.192 0.064 35.584 29.056 64.448 64.64 64.512 20.224 0.064 37.568-9.792 49.344-24.384l41.088-41.024 140.672 140.352c5.056-9.28 9.92-18.752 17.216-25.984 8-8 18.24-13.568 28.736-18.88l-109.44-109.184zM816 523.392c-107.776-107.648-272.768-158.976-330.24-101.568-57.536 57.472-5.056 220.48 102.592 328.128 107.776 107.648 203.136 92.352 260.608 34.88s74.688-153.856-32.96-261.44z" />
<glyph unicode="&#xe601;" glyph-name="uniE601" d="M704 831.872h-64v-319.936h64v319.936zM576 831.872h-64v-319.936h64v319.936zM448 831.872h-64v-319.936h64v319.936zM800 959.936h-512c-17.664 0-32-14.4-32-32v-512c0-17.664 14.336-32 32-32h224v-192.064h-64v-256h192v256h-64v192.064h224c17.6 0 32 14.336 32 32v512c0 17.6-14.4 32-32 32zM576-0.064h-64v127.936h64v-127.936zM768 447.936h-448v448h448v-448z" />
<glyph unicode="&#xe602;" glyph-name="uniE602" d="M768 895.872v0h-512c-106.048 0-192-91.008-192-216.384 0-98.624 53.568-145.344 128-161.024v-483.008c0-54.976 42.944-99.584 96-99.584h448c52.992 0 96 44.608 96 99.648v482.88c74.368 15.36 128 61.376 128 160.064 0 125.312-86.016 217.408-192 217.408zM768 577.216v-513.28c0-35.392-28.608-64.064-64-64.064h-384c-35.328 0-64 28.672-64 64.064v513.28c-73.024 6.4-128 36.544-128 109.76 0 83.52 64 144.896 128 144.896h63.936c0 0 0.064 0 0.064 0h384c0 0 0 0 0.128 0h63.872c64 0 128-61.376 128-144.96 0-73.152-54.976-103.36-128-109.696z" />
<glyph unicode="&#xe603;" glyph-name="uniE603" d="M512 959.872c-212.096 0-384-293.184-384-575.936 0-282.816 171.904-448 384-448s384 165.184 384 448c0 282.752-171.904 575.936-384 575.936zM512-0.128c-176.704 0-320 136.64-320 384.064 0 247.36 143.296 511.936 320 511.936 176.768 0 320-264.576 320-511.936 0-247.424-143.232-384.064-320-384.064z" />
<glyph unicode="&#xe604;" glyph-name="uniE604" d="M960 511.936h-128c-1.152 0-1.984-0.576-3.136-0.64 0 0.192-0.128 0.448-0.128 0.64h3.264v64h-832v-64h3.2c-0.832-10.752-3.2-20.992-3.2-31.936 0-288.064 186.24-416 416-416 168.384 0 313.024 51.968 378.496 205.44 10.624-7.872 23.232-13.504 37.504-13.504h128c35.392 0 64 28.672 64 64v128c0 35.392-28.608 64-64 64zM416 127.936c-167.68 0-307.456 72.064-342.784 256.064h687.808c-32.256-206.72-174.4-256.064-345.024-256.064zM766.848 447.936h-700.224c-0.704 10.944-2.624 20.48-2.624 32.064 0 10.944 2.24 21.248 3.2 31.936h697.536c1.024-10.688 3.264-20.992 3.264-31.936 0-11.264-0.64-21.504-1.152-32.064zM960 384v-64.064h-128v96.064c0 17.6 14.4 31.936 32 31.936h64c17.6 0 32-14.336 32-31.936v-32zM640 831.936h-64v-192h64v192zM448 895.936h-64v-256h64v256zM256 831.936h-64v-192h64v192zM736-0.064h-640c-17.664 0-32-14.336-32-32 0-17.6 14.336-31.936 32-31.936h640c17.6 0 32 14.336 32 31.936 0 17.664-14.4 32-32 32z" />
<glyph unicode="&#xe605;" glyph-name="uniE605" d="M928 831.936h-549.248l-69.312 127.68-53.184-32.704 51.584-94.976h-211.84c-17.664 0-32-14.4-32-32v-192c0-17.664 14.336-32 32-32h101.824l58.176-640h512l58.112 640h101.888c17.6 0 32 14.336 32 32v192c0 17.6-14.4 32-32 32zM128 639.936v128h214.592l41.408-76.352v-51.648h-256zM704-0.128h-384l-57.6 576.064h121.6v-448h64v448h313.6l-57.6-576.064zM896 639.936h-448v63.936h-1.856l1.6 1.024-34.24 63.040h482.496v-128z" />
<glyph unicode="&#xe606;" glyph-name="uniE606" d="M512 960c-212.096 0-320-86.016-320-192 0 0 0 0 0-0.064v-640c0-105.984 107.904-191.936 320-191.936s320 85.952 320 191.936v640c0 0.064 0 0.064 0 0.064 0 105.984-107.904 192-320 192zM768 127.936c0-70.656-79.232-128-256-128s-256 57.344-256 128v517.632c52.8-42.176 137.536-69.568 256-69.568 118.528 0 203.136 27.392 256 69.568v-517.632zM512 640c-176.768 0-256 57.344-256 128 0 70.72 79.232 128 256 128s256-57.28 256-128c0-70.72-79.232-128-256-128z" />
<glyph unicode="&#xe607;" glyph-name="uniE607" d="M192 960v-64.064c0 0 0-26.816 0-95.936 0-250.368 140.608-455.744 320-477.824v-322.24h-128c-17.664 0-32-14.336-32-31.936 0-17.664 14.336-32 32-32h320c17.6 0 32 14.336 32 32 0 17.6-14.4 31.936-32 31.936h-128v322.24c179.392 22.080 320 227.456 320 477.824 0 36.672 0 96 0 96v64h-704zM832 800c0-232-126.016-420.032-288-420.032-161.984-0.064-288 188.032-288 420.032 0 33.216-1.792 65.024 3.328 96h569.344c5.056-30.976 3.328-62.784 3.328-96z" />
<glyph unicode="&#xe608;" glyph-name="uniE608" d="M192 960v-64.064c0 0 0-26.816 0-95.936 0-250.368 140.608-455.744 320-477.824v-322.24h-128c-17.664 0-32-14.336-32-31.936 0-17.664 14.336-32 32-32h320c17.6 0 32 14.336 32 32 0 17.6-14.4 31.936-32 31.936h-128v322.24c179.392 22.080 320 227.456 320 477.824 0 36.608 0 95.936 0 95.936v64.064h-704zM544 379.904c-125.696 0-228.864 113.792-269.184 272.96 45.696 28.864 167.424 88.896 269.184-12.928 116.416-116.288 205.888-47.744 269.376 13.76-40.128-159.488-143.488-273.792-269.376-273.792zM832 800c0-23.488-2.112-46.144-4.608-68.544-64-63.872-158.272-152.576-283.392-27.52-112.128 112.192-248.832 27.84-280.96 5.184-4.352 29.312-7.040 59.584-7.040 90.88 0 33.216-1.792 65.024 3.328 95.936h569.344c5.056-30.912 3.328-62.72 3.328-95.936z" />
<glyph unicode="&#xe609;" glyph-name="uniE609" d="M896 703.936c0 128-64 256.064-64 256.064h-576c0 0-64-128.064-64-256.064 0-250.304 140.608-359.68 320-381.76v-322.24h-128c-17.664 0-32-14.336-32-31.936 0-17.664 14.336-32 32-32h320c17.6 0 32 14.336 32 32 0 17.6-14.4 31.936-32 31.936h-128v322.24c179.392 22.080 320 131.456 320 381.76zM544 379.904c-161.984 0-288 92.096-288 324.032 0 128 30.208 161.088 35.328 192h505.344c5.12-30.912 35.392-64 35.392-192-0.064-231.936-126.080-324.032-288.064-324.032z" />
<glyph unicode="&#xe60a;" glyph-name="uniE60A" d="M896 703.936c0 128-64 256.064-64 256.064h-576c0 0-64-128.064-64-256.064 0-250.304 140.608-359.68 320-381.76v-322.24h-128c-17.664 0-32-14.336-32-31.936 0-17.664 14.336-32 32-32h320c17.6 0 32 14.336 32 32 0 17.6-14.4 31.936-32 31.936h-128v322.24c179.392 22.080 320 131.456 320 381.76zM291.328 895.936h505.344c4.736-28.16 30.016-58.944 34.496-160.896-64-64-159.744-158.528-287.168-31.104-128 128-288 0-288 0 0 128 30.208 161.088 35.328 192zM544 379.904c-146.688 0-262.848 76.672-283.648 263.232 25.216 18.496 167.424 113.024 283.648-3.2 126.528-126.464 221.504-34.304 285.504 29.632-12.48-205.568-132.16-289.664-285.504-289.664z" />
<glyph unicode="&#xe60b;" glyph-name="uniE60B" d="M670.656 63.936h-447.040c-17.6 0-31.936-14.336-31.936-32s14.272-32 31.936-32h446.976c17.6 0 32 14.336 32 32s-14.336 32-31.936 32zM958.016 703.936h-143.296c10.624 75.456 15.488 128 15.488 128h-766.208c0 0 63.872-704 255.424-704h255.424c73.536 0 128 103.872 167.68 231.68 241.472 49.216 215.488 344.32 215.488 344.32zM542.912 191.936h-191.552c-82.048 0-138.624 152.064-174.4 300.032 44.416 28.416 167.552 90.88 270.208-12.032 117.376-117.632 207.744-46.080 271.104 15.936-35.776-149.12-92.544-303.936-175.36-303.936zM734.528 569.664v6.272c-63.872-63.936-159.68-160-287.36-32-115.52 115.84-256.832 22.4-282.752 3.456-25.088 118.208-36.544 220.544-36.544 220.544h638.528c0 0-10.176-89.792-31.872-198.272zM759.232 418.112c19.776 75.072 34.624 153.28 45.76 221.824h89.152c0 0-0.128-199.744-134.912-221.824z" />
<glyph unicode="&#xe60c;" glyph-name="uniE60C" d="M800 63.936h-768c-17.664 0-32-14.336-32-32s14.336-32 32-32h768c17.6 0 32 14.336 32 32s-14.4 32-32 32zM832 764.672v67.264h-832v-384c0-176.768 143.232-320 320-320h192c131.392 0 244.096 79.296 293.504 192.576 121.152 2.944 218.496 101.632 218.496 223.424 0 112.768-83.648 205.12-192 220.736zM768 447.936c0-141.376-114.624-256-256-256h-192c-141.376 0-256 114.624-256 256v320h704v-320zM825.984 386.56c3.904 19.904 6.016 40.384 6.016 61.376v252.736c73.024-14.784 128-79.296 128-156.736 0-79.488-58.112-144.896-134.016-157.376z" />
<glyph unicode="&#xe60d;" glyph-name="uniE60D" d="M958.016 639.936h-143.296c10.752 75.776 15.488 128 15.488 128h-766.208c0 0 63.872-704 255.424-704h255.424c73.536 0 128.128 103.872 167.808 231.68 241.344 49.344 215.36 344.32 215.36 344.32zM542.912 127.936h-191.552c-159.616 0-223.488 576.064-223.488 576.064h638.528c0 0-63.744-576.064-223.488-576.064zM759.232 354.176c19.776 74.752 34.752 153.344 45.888 221.76h89.024c0 0-0.128-199.68-134.912-221.76z" />
<glyph unicode="&#xe60e;" glyph-name="uniE60E" d="M958.016 703.936h-143.296c10.624 75.456 15.488 128 15.488 128h-766.208c0 0 63.872-704 255.424-704h255.424c73.536 0 128 103.872 167.68 231.68 241.472 49.216 215.488 344.32 215.488 344.32zM542.912 191.936h-191.552c-159.616 0-223.488 576-223.488 576h638.528c0 0-63.744-576-223.488-576zM759.232 418.112c19.776 75.072 34.624 153.28 45.76 221.824h89.152c0 0-0.128-199.744-134.912-221.824zM670.656 63.936h-447.040c-17.6 0-31.936-14.336-31.936-32s14.272-31.936 31.936-31.936h446.976c17.6 0 32 14.272 32 31.936s-14.336 32-31.936 32z" />
<glyph unicode="&#xe60f;" glyph-name="uniE60F" d="M288 895.936h448c17.6 0 32 14.4 32 32.064 0 17.6-14.4 32-32 32h-448c-17.664 0-32-14.4-32-32 0-17.664 14.336-32.064 32-32.064zM832 832h-640c-35.328 0-64-38.208-64-85.312v-85.376c0-47.104 28.672-85.312 64-85.312v-573.44c0-36.8 28.672-66.56 64-66.56h512c35.392 0 64 29.76 64 66.56v573.44c35.392 0 64 38.208 64 85.312v85.376c0 47.104-28.608 85.312-64 85.312zM768 30.528c0-16.896-14.4-30.592-32-30.592h-448c-17.664 0-32 13.696-32 30.592v225.344h64c0-106.048 85.952-192 192-192 105.984 0 192 85.952 192 192h64v-225.344zM384 256c0 70.656 57.344 127.936 128 127.936 70.72 0 128-57.344 128-127.936 0-70.72-57.28-128.064-128-128.064-70.656 0-128 57.28-128 128.064zM768 320h-75.776c-26.496 74.368-96.704 127.936-180.224 127.936-83.456 0-153.792-53.568-180.224-127.936h-75.776v255.936h512v-255.936zM800 640.064h-576c-17.664 0-32 28.672-32 64 0 35.392 14.336 64 32 64h576c17.6 0 32-28.608 32-64 0-35.328-14.4-64-32-64z" />
<glyph unicode="&#xe610;" glyph-name="uniE610" d="M913.472 827.904l-49.472 132.032h-704l-49.536-132.032c-26.624-8.832-46.464-35.776-46.464-69.12v-109.696c0-40.448 28.672-73.216 64-73.216h37.824l58.176-640h576l58.112 640h37.888c35.392 0 64 32.768 64 73.216v109.696c0 33.344-19.904 60.288-46.528 69.12zM192 895.936h640l21.376-64h-682.688l21.312 64zM736-0.064h-448l-14.208 128h476.48l-14.272-128zM757.376 191.936h-490.688l-21.312 192h533.312l-21.312-192zM785.728 447.936h-547.52l-14.208 128h576l-14.272-128zM896 639.936h-768v128h768v-128z" />
<glyph unicode="&#xe611;" glyph-name="uniE611" d="M832 704h-7.872c-29.888 145.792-157.504 256-312.128 256s-282.304-110.208-312.128-256h-7.872c-35.328 0-64-32.832-64-73.216v-109.696c0-40.384 28.672-73.152 64-73.152h8l56-448c0-35.392 28.672-64 64-64h384c35.392 0 64 28.608 64 64l56 448h8c35.392 0 64 32.768 64 73.152v109.696c0 40.384-28.608 73.216-64 73.216zM512 895.936c119.104 0 218.24-81.728 246.72-191.936h-493.44c28.48 110.208 127.616 191.936 246.72 191.936zM704 31.936c0-17.6-14.4-31.936-32-31.936h-320c-17.664 0-32 14.336-32 31.936l-59.456 416.064h502.784l-59.328-416.064zM832 554.688c0-23.616-14.4-42.688-32-42.688h-576c-17.664 0-32 19.072-32 42.688v42.624c0 23.552 14.336 42.688 32 42.688h576c17.6 0 32-19.136 32-42.688v-42.624zM640 320h-256v-192.064h256v192.064zM576 191.936h-128v64.064h128v-64.064z" />
<glyph unicode="&#xe612;" glyph-name="uniE612" d="M448 128h-64v-64.064h64v64.064zM832 704h-7.872c-29.888 145.792-157.504 256-312.128 256s-282.304-110.208-312.128-256h-7.872c-35.328 0-64-32.832-64-73.216v-109.696c0-40.384 28.672-73.152 64-73.152h8l56-448c0-35.392 28.672-64 64-64h384c35.392 0 64 28.608 64 64l56 448h8c35.392 0 64 32.768 64 73.152v109.696c0 40.384-28.608 73.216-64 73.216zM512 895.936c119.104 0 218.24-81.728 246.72-191.936h-493.44c28.48 110.208 127.616 191.936 246.72 191.936zM704 31.936c0-17.6-14.4-31.936-32-31.936h-320c-17.664 0-32 14.336-32 31.936l-59.456 416.064h502.784l-59.328-416.064zM832 554.688c0-23.616-14.4-42.688-32-42.688h-576c-17.664 0-32 19.072-32 42.688v42.624c0 23.552 14.336 42.688 32 42.688h576c17.6 0 32-19.136 32-42.688v-42.624zM640 383.936h-64v-64h64v64zM576 63.936h64v64.064h-64v-64.064zM448 319.936h-64v-63.936h64v63.936zM576 256h-64v-64h64v64z" />
<glyph unicode="&#xe613;" glyph-name="uniE613" d="M960 831.872v64h-832v-67.392l384-508.608v-255.936h-96c-17.664 0-32-14.336-32-32s14.336-32 32-32h256c17.6 0 32 14.336 32 32s-14.4 32-32 32h-96v255.936l384 512zM544 383.872h-0.128l-338.24 448h674.368l-336-448z" />
<glyph unicode="&#xe614;" glyph-name="uniE614" d="M832 959.936c-83.52 0-153.856-53.632-180.224-128.064h-383.104l-86.208 128.512-54.208-33.088 63.936-95.424h-128.192v-67.392l384-508.608v-255.936h-96c-17.664 0-32-14.336-32-32s14.336-32 32-32h256c17.6 0 32 14.336 32 32s-14.4 32-32 32h-96v255.936l250.112 333.632c21.76-8.512 45.12-13.568 69.888-13.568 105.984 0 192 85.952 192 192s-86.016 192-192 192zM480 319.872h-0.128l-338.24 448h93.376l209.216-312.384 55.424 32-188.032 280.384h504.384l-336-448zM832 639.936c-10.112 0-19.776 1.408-29.248 3.648l93.248 124.288v64h-174.272c22.144 38.144 63.040 64.064 110.272 64.064 70.72 0 128-57.344 128-128 0-70.72-57.28-128-128-128z" />
<glyph unicode="&#xe615;" glyph-name="uniE615" d="M832 672c0 78.848-86.656 144.064-256 157.184v66.752h192v64.064h-256v-128c-212.096 0-320-71.68-320-160 0-1.472 0.576-2.688 0.64-4.16h-0.64v-539.968c0-105.984 107.904-192 320-192s320 86.016 320 192v542.016h-0.384c0 0.704 0.384 1.344 0.384 2.112zM768 127.936c0-70.656-79.232-127.936-256-127.936s-256 57.344-256 127.936v441.984c52.8-35.136 137.536-57.92 256-57.92 118.528 0 203.136 22.784 256 57.92v-441.984zM512 575.936c-176.768 0-256 43.008-256 96.064 0 52.992 79.232 95.936 256 95.936v-127.936h64v125.76c131.904-9.28 192-47.68 192-93.76 0-53.056-79.232-96.064-256-96.064z" />
<glyph unicode="&#xe616;" glyph-name="uniE616" d="M928 639.936h-96v128c0 70.656-57.28 128-128 128h-512c-70.656 0-128-57.344-128-128v-640c0-70.656 57.344-128 128-128h512c70.72 0 128 57.344 128 128v64h96c52.992 0 96 42.944 96 96v256c0 52.992-43.008 96-96 96zM768 127.936c0-35.392-28.608-64-64-64h-512c-35.328 0-64 28.608-64 64v640c0 35.328 28.672 64 64 64h512c35.392 0 64-28.672 64-64v-640zM960 287.936c0-17.664-14.4-32-32-32h-96v320h96c17.6 0 32-14.4 32-32v-256z" />
<glyph unicode="&#xe617;" glyph-name="uniE617" d="M192 191.936h64v512h-64v-512zM384 191.936h64v512h-64v-512zM896 703.936c-0.128 0-0.256-0.064-0.384-0.064h-63.616v192.064c0 35.392-28.608 64-64 64h-704c-35.328 0-64-28.608-64-64v-895.936c0-35.392 28.672-64.064 64-64.064h704c35.392 0 64 28.672 64 64.064v255.872l64 0.064c70.72 0 128 53.504 128 119.488v209.088c0 65.984-57.28 119.424-128 119.424zM768 584.512v-552.576c0-17.664-14.4-31.936-32-31.936h-640c-17.664 0-32 14.272-32 31.936v832c0 17.664 14.336 32 32 32h640c17.6 0 32-14.336 32-32v-279.424zM960 378.112c0-32.128-28.608-58.176-64-58.176h-64v320h64c35.392 0 64-26.048 64-58.176v-203.648zM576 191.936h64v512h-64v-512z" />
<glyph unicode="&#xe618;" glyph-name="uniE618" d="M704 447.872c0 96-64 128-64 128v384h-256v-384c0 0-64-32-64-128 0-32 0-511.936 0-511.936h384c0 0 0 479.936 0 511.936zM448 895.872h128v-63.936h-128v63.936zM576-0.064v0h-192c0 0 0 416 0 448 0 64 64 63.936 64 63.936v256.064h128v-256.064c0 0 64 0.064 64-63.936 0-32 0-448 0-448h-64z" />
<glyph unicode="&#xe619;" glyph-name="uniE619" d="M672 640c17.6 0 32 14.336 32 32v127.936c0 17.728-14.4 32.064-32 32.064s-32-14.336-32-32.064v-127.936c0-17.664 14.4-32 32-32zM544 640c17.664 0 32 14.336 32 32v192c0 17.6-14.336 32-32 32-17.6 0-32-14.4-32-32v-192c0-17.664 14.336-32 32-32zM864 0h-640c-17.664 0-32-14.336-32-32s14.336-32 32-32h640c17.6 0 32 14.336 32 32s-14.4 32-32 32zM480 64h128c141.376 0 224 114.624 224 256v256h-576v-256c0-141.376 82.624-256 224-256zM320 512h448v-192c0-106.048-54.016-192-160-192h-128c-106.048 0-160 85.952-160 192v192zM416 640c17.664 0 32 14.336 32 32v127.936c0 17.728-14.336 32.064-32 32.064s-32-14.336-32-32.064v-127.936c0-17.664 14.336-32 32-32z" />
<glyph unicode="&#xe61a;" glyph-name="uniE61A" d="M544 640c17.664 0 32 14.336 32 32v192c0 17.6-14.336 32-32 32-17.6 0-32-14.4-32-32v-192c0-17.664 14.336-32 32-32zM672 640c17.6 0 32 14.336 32 32v127.936c0 17.728-14.4 32.064-32 32.064s-32-14.336-32-32.064v-127.936c0-17.664 14.4-32 32-32zM416 640c17.664 0 32 14.336 32 32v127.936c0 17.728-14.336 32.064-32 32.064s-32-14.336-32-32.064v-127.936c0-17.664 14.336-32 32-32zM256 51.648v-66.496c83.52-30.912 181.952-49.152 288-49.152s204.544 18.176 288 49.152v66.496c-80.256-32.32-179.776-51.648-288-51.648s-207.744 19.328-288 51.648zM256 576v-256c0-141.376 82.624-256 224-256h128c141.376 0 224 114.624 224 256v256h-576zM768 320c0-106.048-54.016-192-160-192h-128c-106.048 0-160 85.952-160 192v192h448v-192z" />
<glyph unicode="&#xe61b;" glyph-name="uniE61B" d="M416 640c17.664 0 32 14.336 32 32v127.936c0 17.664-14.336 32.064-32 32.064s-32-14.4-32-32.064v-127.936c0-17.664 14.336-32 32-32zM672 640c17.6 0 32 14.336 32 32v127.936c0 17.664-14.4 32.064-32 32.064s-32-14.4-32-32.064v-127.936c0-17.664 14.4-32 32-32zM544 640c17.664 0 32 14.336 32 32v192c0 17.6-14.336 32-32 32-17.6 0-32-14.4-32-32v-192c0-17.664 14.336-32 32-32zM256 576v-256c0-141.376 82.624-256 224-256h128c141.376 0 224 114.624 224 256v256h-576zM768 320c0-106.048-54.016-192-160-192h-128c-106.048 0-160 85.952-160 192v64h448v-64zM768 447.936h-448v64.064h448v-64.064zM256 51.648v-66.496c83.52-30.912 181.952-49.152 288-49.152s204.544 18.176 288 49.152v66.496c-80.256-32.32-179.776-51.648-288-51.648s-207.744 19.328-288 51.648z" />
<glyph unicode="&#xe61c;" glyph-name="uniE61C" d="M544 640c17.664 0 32 14.336 32 32v192c0 17.6-14.336 32-32 32-17.6 0-32-14.4-32-32v-192c0-17.664 14.336-32 32-32zM672 640c17.6 0 32 14.336 32 32v127.936c0 17.664-14.4 32.064-32 32.064s-32-14.4-32-32.064v-127.936c0-17.664 14.4-32 32-32zM416 640c17.664 0 32 14.336 32 32v127.936c0 17.664-14.336 32.064-32 32.064s-32-14.4-32-32.064v-127.936c0-17.664 14.336-32 32-32zM864 0h-640c-17.664 0-32-14.4-32-32 0-17.664 14.336-32 32-32h640c17.6 0 32 14.336 32 32 0 17.6-14.4 32-32 32zM480 64h128c141.376 0 224 114.624 224 256v256h-576v-256c0-141.376 82.624-256 224-256zM320 512h448v-64.064h-448v64.064zM320 384h448v-64c0-106.048-54.016-192-160-192h-128c-106.048 0-160 85.952-160 192v64z" />
<glyph unicode="&#xe61d;" glyph-name="uniE61D" d="M768 511.68c0 32-128 64-128 64v192.192c35.392 0 64 43.008 64 96 0 53.056-28.608 96-64 96h-256c-35.328 0-64-42.944-64-96s28.672-96 64-96v-192.128c0 0-128-32-128-64s0-511.872 0-511.872h3.2c-1.792-5.12-3.2-10.368-3.2-16.064 0-26.496 21.504-48 48-48h416c26.496 0 48 21.504 48 48 0 5.696-1.344 10.944-3.264 16h3.264c0 0 0 479.872 0 511.872zM416 895.808h192c17.6 0 32-14.336 32-32s-14.4-32-32-32h-32v-0.064l-160 0.064c-17.728 0-32 14.336-32 32s14.272 32 32 32zM704 159.808c0-37.76 0-64 0-64v-64c0-17.664-14.4-32-32-32h-320c-17.664 0-32 14.336-32 32v64c0 0 0 26.24 0 64v288c0 64 128 63.872 128 63.872v256h128v-256c0 0 128 0 128-64v-287.872z" />
<glyph unicode="&#xe61e;" glyph-name="uniE61E" d="M640 575.744v192.128c35.392 0 64 43.008 64 96 0 53.056-28.608 96-64 96h-256c-35.328 0-64-42.944-64-96 0-52.992 28.672-96 64-96v-192.128c0 0-128-32-128-64v-384c0-73.408 0-127.872 0-127.872h3.2c-1.792-5.12-3.2-10.368-3.2-16.064 0-26.496 21.44-48 48-48h416c26.496 0 48 21.504 48 48 0 5.696-1.344 10.944-3.264 16h3.264c0 0 0 54.464 0 127.872v384c0 32.064-128 64.064-128 64.064zM416 895.808h192c17.6 0 32-14.336 32-32s-14.4-32-32-32h-192c-17.728 0-32 14.336-32 32s14.272 32 32 32zM704 95.808v-64c0-17.664-14.4-32-32-32h-320c-17.664 0-32 14.336-32 32v64c0 0 0 12.544 0 31.872h384c0-19.328 0-31.872 0-31.872zM704 191.68h-384v128h384v-128zM704 383.68h-384v64.128c0 64 128 63.872 128 63.872v256.128h128v-256.064c0 0 128 0.128 128-63.872v-64.192z" />
<glyph unicode="&#xe61f;" glyph-name="uniE61F" d="M832 895.936h-640c-35.328 0-64-28.608-64-64l64-831.936c0-35.392 28.672-64.064 64-64.064h512c35.392 0 64 28.672 64 64.064l64 831.936c0 35.392-28.608 64-64 64zM768 31.936c0-17.6-14.4-31.936-32-31.936h-448c-17.664 0-32 14.336-32 31.936l-64 768.064c0 17.664 14.336 31.936 32 31.936h576c17.6 0 32-14.272 32-31.936l-64-768.064z" />
<glyph unicode="&#xe620;" glyph-name="uniE620" d="M960 479.936c0 90.048-53.504 167.168-130.112 202.752 0.64 7.104 2.112 13.952 2.112 21.248 0 141.376-114.624 256-256 256-141.312 0-256-114.624-256-256 0-1.152 0.32-2.112 0.32-3.2-108.544-15.488-192.32-107.904-192.32-220.8 0-10.944 1.664-21.44 3.2-32h-3.2l448-512 384 512h-3.264c1.536 10.56 3.264 21.056 3.264 32zM576 895.936c106.048 0 192-85.952 192-192 0-1.152-0.256-2.112-0.384-3.2-10.368 1.472-20.736 3.2-31.616 3.2-82.24 0-153.344-44.864-192.32-110.912-33.6 56.832-91.008 97.664-159.36 107.648 0 1.088-0.32 2.112-0.32 3.264 0 106.048 85.952 192 192 192zM192 479.936c0 88.384 71.616 160 160 160s160-71.616 160-160c0-10.944-1.152-21.696-3.2-32h-313.6c-2.048 10.304-3.2 21.056-3.2 32zM576 31.936l-320 352h576l-256-352zM892.736 447.936h-313.472c-2.112 10.304-3.264 21.056-3.264 32 0 88.384 71.68 160 160 160s160-71.616 160-160c0-10.944-1.152-21.696-3.264-32z" />
<glyph unicode="&#xe621;" glyph-name="uniE621" d="M960 671.872c0 88.384-71.616 160-160 160-17.472 0-33.984-3.52-49.6-8.64-34.176 80.256-113.664 136.64-206.4 136.64s-172.288-56.384-206.336-136.64c-15.744 5.12-32.192 8.64-49.664 8.64-88.384 0-160-71.616-160-160 0-10.944 1.152-21.632 3.2-32v-63.936c-0.768-10.752-3.2-21.056-3.2-32 0-218.816 169.472-396.16 384-412.8v-131.2h-128v-64h320v64h-128v131.2c214.528 16.64 384 193.984 384 412.8 0 10.944-2.368 21.248-3.264 32v63.936c2.112 10.368 3.264 21.056 3.264 32zM544 895.872c69.056 0 127.296-43.968 149.76-105.216-32.768-29.312-53.76-71.424-53.76-118.784 0-11.072 1.472-21.632 3.904-32h-199.744c2.304 10.368 3.84 20.928 3.84 32 0 47.36-20.992 89.472-53.76 118.784 22.464 61.248 80.704 105.216 149.76 105.216zM288 767.872c53.056 0 96-43.008 96-96 0-11.328-2.816-21.888-6.464-32h-179.072c-3.648 10.112-6.464 20.672-6.464 32 0 52.992 42.944 96 96 96zM544 191.936c-194.368 0-352 157.632-352 352 0 10.944 2.24 21.312 3.2 32h697.536c1.024-10.688 3.264-21.056 3.264-32 0-194.368-157.632-352-352-352zM889.472 639.872h-179.008c-3.584 10.112-6.464 20.672-6.464 32 0 52.992 43.008 96 96 96s96-43.008 96-96c0-11.328-2.88-21.888-6.528-32z" />
<glyph unicode="&#xe622;" glyph-name="uniE622" d="M576 959.936h-64c-141.376 0-256-114.624-256-256v-384c0-70.656 57.344-128 128-128h64v-192c0-35.392 28.672-64 64-64h64c35.392 0 64 28.608 64 64v192h64c70.72 0 128 57.344 128 128v384c0 141.376-114.624 256-256 256zM576 31.936c0-17.664-14.336-32-32-32-17.6 0-32 14.336-32 32v160h64v-160zM768 575.936v-256c0-35.328-28.608-64-64-64h-320c-35.328 0-64 28.672-64 64v384c0 106.048 85.952 192 192 192h64c106.048 0 192-85.952 192-192v-128z" />
<glyph unicode="&#xe623;" glyph-name="uniE623" d="M704 959.936h-320c-70.656 0-128-57.344-128-128v-512c0-70.656 57.344-128 128-128h64v-192c0-35.392 28.672-64 64-64h64c35.392 0 64 28.608 64 64v192h64c70.72 0 128 57.344 128 128v512c0 70.656-57.28 128-128 128zM576 31.936c0-17.664-14.336-32-32-32-17.6 0-32 14.336-32 32v160h64v-160zM768 319.936c0-35.392-28.608-64-64-64h-320c-35.328 0-64 28.608-64 64v512c0 35.328 28.672 64 64 64h320c35.392 0 64-28.672 64-64v-512z" />
<glyph unicode="&#xe624;" glyph-name="uniE624" d="M795.648 445.184c-34.112 57.92-86.016 147.008-127.616 222.912-32.768 59.84-62.272 125.76-78.656 163.84h82.624c17.6 0 32 14.4 32 32.064 0 17.6-14.4 31.936-32 31.936h-320c-17.664 0-32-14.336-32-31.936 0-17.664 14.336-32.064 32-32.064h97.408c-35.264-38.080-92.608-104-125.376-163.84-41.344-75.52-69.248-163.904-84.864-221.824-133.376-8.832-239.168-118.72-239.168-254.336 0-141.376 114.624-256 256-256s256 114.624 256 256c0 124.544-88.96 228.032-206.72 251.072 15.616 49.536 41.728 123.84 79.168 199.808 28.16 57.28 85.952 120.384 130.816 164.672 27.008-44.288 64.064-107.392 92.352-164.672 44.224-90.048 87.872-162.688 111.104-199.808-117.696-23.040-206.72-126.528-206.72-251.072 0-141.376 114.624-256 256-256s256 114.624 256 256c0 131.904-100.096 239.296-228.352 253.248zM448 191.936c0-105.984-85.952-192-192-192s-192 86.016-192 192c0 106.048 85.952 192 192 192s192-85.952 192-192zM768-0.064c-105.984 0-192 86.016-192 192 0 106.048 86.016 192 192 192s192-85.952 192-192c0-105.984-86.016-192-192-192z" />
<glyph unicode="&#xe625;" glyph-name="uniE625" d="M775.744 511.168c-32.512 39.488-73.6 94.656-107.776 156.928-36.224 66.24-68.608 174.528-83.328 227.904h87.36c17.6 0 32 14.272 32 31.936 0 17.6-14.4 32.064-32 32.064h-320c-17.664 0-32-14.464-32-32.064 0-17.664 14.336-31.936 32-31.936h108.032c-33.088-53.376-99.776-161.664-136-227.904-41.344-75.52-69.248-163.904-84.864-221.888-133.376-8.768-239.168-118.656-239.168-254.272 0-141.376 114.624-256 256-256s256 114.624 256 256c0 124.544-88.96 228.032-206.72 251.072 15.616 49.536 41.728 123.84 79.168 199.808 28.16 57.28 85.952 141.056 130.816 203.2 27.008-62.144 64.128-145.92 92.352-203.2 36.864-74.944 73.28-116.8 97.856-139.456-110.976-27.968-193.472-127.68-193.472-247.424 0-141.376 114.624-256 256-256s256 114.624 256 256c0 138.752-110.528 251.008-248.256 255.232zM448 191.936c0-105.984-85.952-192-192-192s-192 86.016-192 192c0 106.048 85.952 192 192 192s192-85.952 192-192zM768 63.936c-105.984 0-192 85.952-192 192s86.016 192 192 192 192-85.952 192-192-86.016-192-192-192z" />
<glyph unicode="&#xe626;" glyph-name="uniE626" d="M496 708.352c15.296-8.896 34.816-3.648 43.712 11.84 0 0-0.64 46.848 31.040 94.208 32.32 48.32 96.96 97.088 96.96 97.088 8.768 15.424 3.52 35.136-11.776 44.032s-34.816 3.52-43.712-11.904c0 0-63.872-47.552-95.808-95.296-32-47.936-32.128-95.936-32.128-95.936-8.832-15.36-3.584-35.072 11.712-44.032zM710.4 703.872c-85.504 0-146.496-63.936-198.4-63.936-51.968 0-112.896 63.936-198.336 63.936-137.856 0-249.664-114.56-249.664-255.936 0-141.44 118.080-512 256-512 128 0 128 62.208 192 62.208s64-62.208 192-62.208c137.856 0 256 370.56 256 512 0 141.376-111.744 255.936-249.6 255.936zM704-0.064c-59.648 0-58.368 15.552-90.88 32.064-27.776 14.144-59.264 30.144-101.12 30.144s-73.344-16-101.12-30.144c-32.512-16.512-31.232-32.064-90.88-32.064-61.312 0-192 276.288-192 448 0 105.856 83.264 192 185.664 192 32.896 0 62.976-15.104 94.912-31.104 32.192-16.192 65.536-32.96 103.424-32.96 37.824 0 71.104 16.768 103.36 32.96 31.872 16 62.144 31.104 94.976 31.104 102.4 0 185.6-86.144 185.6-192 0.064-171.712-130.688-448-191.936-448z" />
<glyph unicode="&#xe627;" glyph-name="uniE627" d="M960.512 173.568l-466.048 466.048-0.192 0.704-0.448-0.064-255.424 255.36-23.040-23.040-1.408 1.408c-92.608-92.608-149.952-220.608-149.952-361.984 0-282.816 229.248-512.064 512-512.064 129.792 0 247.808 48.64 338.048 128.128l0.512-0.512 10.752 10.688c4.096 3.968 8.768 7.552 12.736 11.712l-0.512 0.576 22.976 23.040zM576 63.936c-247.424 0-448 200.64-448 448.064 0 111.936 42.56 213.056 110.464 291.648l178.56-178.56-224.64-44.416 17.92-68.416 266.88 52.736 51.968-51.968-208.832-208.896 47.936-47.936 208.832 208.896 30.912-31.040v-306.112h64l0.384 241.792 195.264-195.328c-78.528-67.904-179.648-110.464-291.648-110.464z" />
<glyph unicode="&#xe628;" glyph-name="uniE628" d="M1024 640c0 105.984-86.016 192-192 192-66.88 0-125.632-34.304-160-86.144-28.736 43.328-74.624 73.856-128 82.88v67.264h64c17.6 0 32 14.336 32 31.936 0 17.728-14.4 32.064-32 32.064h-192c-17.664 0-32-14.336-32-32.064 0-17.6 14.336-31.936 32-31.936h64v-67.264c-53.312-9.024-99.264-39.552-128-82.88-34.368 51.84-93.12 86.144-160 86.144-106.048 0-192-86.016-192-192 0-106.048 85.952-192 192-192 4.16 0 8 0.96 12.096 1.216-7.36-20.48-12.096-42.24-12.096-65.28 0-88.64 60.352-162.496 142.016-184.576-8.832-22.144-14.016-46.144-14.016-71.36 0-106.048 85.952-192 192-192 105.984 0 192 85.952 192 192 0 22.912-4.224 44.8-11.648 65.152 3.904-0.192 7.616-1.152 11.648-1.152 105.984 0 192 85.952 192 191.936 0 25.344-5.12 49.344-14.016 71.424 81.664 22.080 142.016 95.936 142.016 184.64zM512 768c70.72 0 128-57.344 128-128s-57.28-128-128-128c-70.656 0-128 57.344-128 128 0 70.592 57.344 128 128 128zM192 512c-70.656 0-128 57.344-128 128s57.344 128 128 128 128-57.344 128-128c0-70.72-57.344-128-128-128zM256 383.936c0 66.24 50.496 120.064 114.88 126.656 31.040-33.856 73.984-56 122.304-60.736 11.712-19.328 18.816-41.664 18.816-65.92 0-70.656-57.344-128-128-128s-128 57.344-128 128zM512 0c-70.656 0-128 57.344-128 128 0 24.192 7.104 46.592 18.752 65.856 48.384 4.736 91.264 26.88 122.368 60.8 64.384-6.656 114.88-60.48 114.88-126.656 0-70.72-57.28-128-128-128zM704 256c-70.72 0-128 57.344-128 127.936 0 70.72 57.28 128.064 128 128.064s128-57.344 128-128.064c0-70.656-57.28-127.936-128-127.936zM844.992 513.28c-30.976 33.856-73.856 56-122.24 60.736-11.648 19.328-18.752 41.728-18.752 65.984 0 70.656 57.28 128 128 128s128-57.344 128-128c0-66.24-50.496-120.064-115.008-126.72z" />
<glyph unicode="&#xe629;" glyph-name="uniE629" d="M229.696 895.488c-17.408 2.944-33.984-8.96-37.056-26.688l-64.64-301.184-64.704 301.184c-3.008 17.728-19.584 29.632-36.992 26.688s-28.992-19.648-25.92-37.248l95.040-442.496-95.040-443.008c-3.072-17.664 8.576-34.368 25.92-37.312 17.344-2.88 33.984 9.024 36.992 26.688l64.768 301.696 64.576-300.672c3.072-17.664 19.648-29.632 37.056-26.688 17.344 2.944 28.992 19.648 25.92 37.248l-94.976 442.048 94.976 442.432c3.072 17.664-8.576 34.368-25.92 37.312zM1024 698.112l-64 203.648c0 32.192-28.608 58.24-64 58.24h-448c-35.328 0-64-26.048-64-58.24l-64-203.648c0-10.496 3.904-19.84 9.28-28.352-5.376-9.792-9.28-20.544-9.28-32.576l64-634.432c0-36.864 28.672-66.816 64-66.816h448c35.392 0 64 29.952 64 66.816l64 634.432c0 12.032-3.904 22.784-9.28 32.576 5.376 8.576 9.28 17.856 9.28 28.352zM896 33.664c0-18.624-14.4-33.664-32-33.664h-384c-17.664 0-32 15.040-32 33.664l-10.56 94.336h469.056l-10.496-94.336zM913.728 192h-483.392l-14.336 128h512l-14.272-128zM935.104 384h-526.272l-24.832 222.336c0 18.56 14.272 33.6 31.936 33.6h512.192c17.6 0 31.872-15.040 31.872-33.6l-24.896-222.336zM928 704h-512c-17.664 0-32 12.224-32 27.392l64 137.216c0 15.104 14.336 27.328 32 27.328h384c17.6 0 32-12.224 32-27.392l64-137.216c0-15.104-14.4-27.328-32-27.328z" />
<glyph unicode="&#xe62a;" glyph-name="uniE62A" d="M229.696 895.488c-17.408 2.944-33.984-8.96-37.056-26.688l-64.64-301.184-64.704 301.184c-3.008 17.728-19.584 29.632-36.992 26.688s-28.992-19.648-25.92-37.248l95.040-442.496-95.040-443.008c-3.072-17.664 8.576-34.368 25.92-37.312 17.344-2.88 33.984 9.024 36.992 26.688l64.768 301.696 64.576-300.672c3.072-17.664 19.648-29.632 37.056-26.688 17.344 2.944 28.992 19.648 25.92 37.248l-94.976 442.048 94.976 442.432c3.072 17.664-8.576 34.368-25.92 37.312zM672 448c-88.384 0-160-71.68-160-160.064 0-88.32 71.616-159.936 160-159.936s160 71.616 160 159.936c0 88.384-71.616 160.064-160 160.064zM672 191.936c-52.992 0-96 43.008-96 96 0 53.056 43.008 96.064 96 96.064s96-43.008 96-96.064c0-52.992-43.008-96-96-96zM1024 698.112l-64 203.648c0 32.192-28.608 58.24-64 58.24h-448c-35.328 0-64-26.048-64-58.24l-64-203.648c0-10.496 3.904-19.84 9.28-28.352-5.376-9.792-9.28-20.544-9.28-32.576l64-634.432c0-36.864 28.672-66.816 64-66.816h448c35.392 0 64 29.952 64 66.816l64 634.432c0 12.032-3.904 22.784-9.28 32.576 5.376 8.576 9.28 17.856 9.28 28.352zM896 33.664c0-18.624-14.4-33.664-32-33.664h-384c-17.664 0-32 15.040-32 33.664l-64 572.672c0 18.56 14.272 33.6 31.936 33.6h512.192c17.6 0 31.872-15.040 31.872-33.6l-64-572.672zM928 704h-512c-17.664 0-32 12.224-32 27.392l64 137.216c0 15.104 14.336 27.328 32 27.328h384c17.6 0 32-12.224 32-27.392l64-137.216c0-15.104-14.4-27.328-32-27.328z" />
<glyph unicode="&#xe62b;" glyph-name="uniE62B" d="M229.696 895.488c-17.408 2.944-33.984-8.96-37.056-26.688l-64.64-301.184-64.704 301.184c-3.008 17.728-19.584 29.632-36.992 26.688s-28.992-19.648-25.92-37.248l95.040-442.496-95.040-443.008c-3.072-17.664 8.576-34.368 25.92-37.312 17.344-2.88 33.984 9.024 36.992 26.688l64.768 301.696 64.576-300.672c3.072-17.664 19.648-29.632 37.056-26.688 17.344 2.944 28.992 19.648 25.92 37.248l-94.976 442.048 94.976 442.432c3.072 17.664-8.576 34.368-25.92 37.312zM1024 698.112l-64 203.648c0 32.192-28.608 58.24-64 58.24h-448c-35.328 0-64-26.048-64-58.24l-64-203.648c0-10.496 3.904-19.84 9.28-28.352-5.376-9.792-9.28-20.544-9.28-32.576l64-634.432c0-36.864 28.672-66.816 64-66.816h448c35.392 0 64 29.952 64 66.816l64 634.432c0 12.032-3.904 22.784-9.28 32.576 5.376 8.576 9.28 17.856 9.28 28.352zM896 33.664c0-18.624-14.4-33.664-32-33.664h-384c-17.664 0-32 15.040-32 33.664l-3.392 30.336h454.784l-3.392-30.336zM906.496 128h-469.056l-53.44 478.336c0 18.56 14.272 33.6 31.936 33.6h512.192c17.6 0 31.872-15.040 31.872-33.6l-53.504-478.336zM928 704h-512c-17.664 0-32 14.336-32 31.936l64 128.064c0 17.6 14.336 31.936 32 31.936h384c17.6 0 32-14.336 32-31.936l64-128.064c0-17.6-14.4-31.936-32-31.936z" />
<glyph unicode="&#xe62c;" glyph-name="uniE62C" d="M1024 511.808c0 106.112-229.248 192.064-512 192.064s-512-85.952-512-192.064c0-6.912 1.088-13.76 3.008-20.48-1.344-14.4-3.008-28.736-3.008-43.456 0-282.752 229.248-512 512-512 282.688 0 512 229.248 512 512 0 14.72-1.6 29.056-3.008 43.456 1.856 6.72 3.008 13.568 3.008 20.48zM512-0.128c-237.376 0-431.104 184.704-446.528 418.176 87.744-58.56 254.656-98.176 446.528-98.176s358.848 39.616 446.464 98.176c-15.36-233.472-209.088-418.176-446.464-418.176zM512 383.872c-247.424 0-448 57.344-448 127.936 0 70.784 200.576 128.064 448 128.064 247.36 0 448-57.28 448-128.064 0-70.592-200.64-127.936-448-127.936z" />
<glyph unicode="&#xe62d;" glyph-name="uniE62D" d="M684.096 576l248.128 220.928c13.12 11.776 14.4 32 2.624 45.184s-32 14.4-45.248 2.624l-301.568-268.736h96.064zM0 512c0-189.376 103.040-354.496 256-442.944l10.368-4.992c18.688-10.24 37.696-20.032 57.728-27.968-1.792-6.528-4.096-12.992-4.096-20.096 0-44.096 35.776-80 80-80h224c44.096 0 80 35.904 80 80 0 7.104-2.24 13.568-4.032 20.096 20.032 7.936 38.976 17.664 57.6 27.968l10.432 4.992c153.024 88.512 256 253.568 256 442.944h-1024zM640 0.064h-256v64h256v-64zM739.776 128h-455.552c-113.792 67.648-195.52 183.296-215.168 320h885.888c-19.712-136.704-101.44-252.352-215.168-320zM764.096 912.576c8.896 15.040 3.648 34.304-11.648 43.008-15.36 8.704-34.88 3.584-43.776-11.456l-216.768-368.128h73.984l198.208 336.576z" />
<glyph unicode="&#xe62e;" glyph-name="uniE62E" d="M684.224 511.808l248 220.928c13.12 11.776 14.4 32 2.624 45.184-11.776 13.248-32 14.4-45.248 2.624l-301.568-268.736h96.192zM992 447.872h-992c0-282.752 229.248-512 512-512 282.688 0 512 229.248 512 512h-32zM512-0.128c-152.064 0-286.016 76.032-366.784 191.872h733.504c-80.704-115.904-214.592-191.872-366.72-191.872zM916.032 255.872h-807.936c-18.944 39.872-32.512 82.752-38.976 128h885.888c-6.528-45.248-20.16-88.128-38.976-128zM764.096 848.384c8.896 15.040 3.648 34.304-11.648 43.008-15.36 8.704-34.88 3.584-43.776-11.456l-216.768-368.128h74.048l198.144 336.576z" />
<glyph unicode="&#xe62f;" glyph-name="uniE62F" d="M894.976 255.936c0 282.752-100.992 511.936-382.976 511.936-282.048 0-382.976-229.184-382.976-511.936 0 0-27.584-167.36 306.816-189.504 4.032-0.832 7.872-2.496 12.16-2.496h62.272c0.64 0 1.088-0.064 1.728-0.064 0 0 0.128 0 0.192 0 0.64 0 1.088 0.064 1.664 0.064h62.144c4.288 0 7.936 1.6 11.904 2.432 334.72 21.952 307.072 189.568 307.072 189.568zM811.776 202.816c-19.392-20.992-65.344-52.608-171.776-67.136v120.256c0 35.392-28.608 64-64 64h-128c-35.328 0-64-28.608-64-64v-120.192c-106.368 14.528-152.384 46.144-171.776 67.136-18.432 19.968-20.032 37.76-20.032 43.328l0.576 1.728v8c0 297.28 107.392 448 319.168 448s319.104-150.72 319.104-448l-1.024-2.88c0.128 0 0.512-29.888-18.24-50.24z" />
<glyph unicode="&#xe630;" glyph-name="uniE630" d="M1024.896 244.288c0 359.872-135.296 651.648-512.896 651.648-377.664 0-512.896-291.776-512.896-651.648 0 0-32.768-193.92 354.304-236.032 9.088-4.864 18.944-8.384 30.016-8.384h128.576c0.064 0 0.192 0 0.256 0h128.192c11.008 0 20.864 3.52 30.016 8.32 387.136 41.984 354.432 236.096 354.432 236.096zM640.512 95.936c0-17.664-14.4-32-32.128-32h-192.768c-17.728 0-32.128 14.336-32.128 32v128c0 17.6 14.4 32 32.128 32h192.768c17.728 0 32.128-14.4 32.128-32v-128zM936.64 173.184c-25.28-29.888-87.104-74.432-231.872-96.256v179.008c0 35.392-28.736 64-64.256 64h-257.024c-35.52 0-64.256-28.608-64.256-64v-178.816c-140.48 21.248-202.688 63.872-228.672 92.608-27.712 30.592-28.16 58.176-27.904 64.32l0.768 2.56v7.68c0 268.096 77.824 587.584 448.576 587.584 370.688 0 448.576-319.488 448.576-587.584v-5.568l0.896-5.44c0.128-0.192 1.92-28.416-24.832-60.096z" />
<glyph unicode="&#xe631;" glyph-name="uniE631" d="M512 959.872c-282.752 0-512-229.248-512-512v-448c0-35.392 28.672-64 64-64h896c35.392 0 64 28.608 64 64v448c0 282.752-229.248 512-512 512zM66.176 490.56c21.504 227.392 212.8 405.312 445.824 405.312 232.96 0 424.32-177.92 445.824-405.312 1.28-3.392 2.176-42.688 2.176-42.688h-896c0 0 0.96 39.36 2.176 42.688zM960 31.872c0-17.6-14.4-32-32-32h-832c-17.664 0-32 14.4-32 32v160h896v-160zM64 255.872v128h896v-128h-896z" />
<glyph unicode="&#xe632;" glyph-name="uniE632" d="M134.464 384c-3.584 20.864-6.464 42.048-6.464 63.936 0 212.096 171.904 384 384 384s384-171.904 384-384c0-21.888-2.88-43.072-6.528-63.936h64c3.136 21.056 6.528 42.048 6.528 63.936 0 247.424-200.64 448-448 448-247.424 0-448-200.576-448-448 0-21.888 3.392-42.88 6.464-63.936h64zM960 383.936h-896c-35.328 0-64-28.672-64-64v-128c0-35.392 28.672-64 64-64h21.312l42.688-128c0-35.392 28.672-64 64-64h640c35.392 0 64 28.608 64 64l42.624 128h21.376c35.392 0 64 28.608 64 64v128c0 35.328-28.608 64-64 64zM832 31.936c0-17.664-14.4-32-32-32h-576c-17.664 0-32 14.336-32 32l-48 96h736l-48-96zM960 223.936c0-17.664-14.4-32-32-32h-832c-17.664 0-32 14.336-32 32v64c0 17.664 14.336 32 32 32h832c17.6 0 32-14.336 32-32v-64z" />
<glyph unicode="&#xe633;" glyph-name="uniE633" d="M512 896c0 0-320-363.968-320-576 0-212.096 143.232-384.064 320-384.064s320 171.968 320 384.064c0 212.032-320 576-320 576zM512 0c-141.376 0-256 143.232-256 320 0 176.704 256 479.936 256 479.936s256-303.232 256-479.936c0-176.768-114.624-320-256-320zM352 351.936c0 3.712 0.384 7.232 0.512 10.944-20.48-30.592-32.512-67.392-32.512-106.944 0-105.984 85.952-192 192-192 39.616 0 76.352 12.032 106.88 32.576-3.648-0.128-7.232-0.576-10.88-0.576-141.376 0-256 114.624-256 256z" />
<glyph unicode="&#xe634;" glyph-name="uniE634" d="M736 511.936h-192c-17.6 0-32-14.336-32-32s14.336-32 32-32h192c17.6 0 32 14.336 32 32s-14.4 32-32 32zM736 703.936h-192c-17.6 0-32-14.336-32-32s14.336-32 32-32h192c17.6 0 32 14.336 32 32s-14.4 32-32 32zM896 959.936h-704c-35.328 0-64-28.608-64-64v-896c0-35.328 28.672-64 64-64h704c35.392 0 64 28.672 64 64v896c0 35.392-28.608 64-64 64zM320-0.064h-96c-17.664 0-32 14.336-32 32v832c0 17.664 14.336 32 32 32h96v-896zM896 31.936c0-17.664-14.4-32-32-32h-480v896h480c17.6 0 32-14.336 32-32v-832z" />
<glyph unicode="&#xe635;" glyph-name="uniE635" d="M958.976 895.040c0 0-954.752 67.136-891.008-896.128 0 0 308.48-9.472 562.56 161.408l4.608 3.136c183.104 125.12 336.768 344.704 323.84 731.584zM821.632 833.536c-94.976-46.912-185.152-116.352-268.352-193.6l-1.728 0.32-0.384-2.24c-40.768-37.952-80.384-77.12-117.12-117.632l-71.040 143.36c156.544 135.552 352.896 164.736 458.624 169.792zM314.944 616.96l73.536-148.416c-44.032-51.584-84.032-102.72-119.488-150.72l-4.16-5.568c-59.52-81.024-105.472-151.936-133.696-197.568 10.496 236.352 85.12 395.264 183.808 502.272zM181.44 62.080c35.776 65.344 73.728 126.4 112.832 183.104l273.856-69.056c-148.288-87.936-307.456-109.44-386.688-114.048zM638.848 224.512l-304.064 76.736c78.4 106.56 159.488 196.224 234.88 270.4l278.72-51.136c-47.104-133.632-123.392-228.736-209.536-296zM866.496 582.464l-239.36 43.968c151.488 138.432 267.584 206.336 268.864 207.040 0.768-0.064 1.6-0.128 1.6-0.128 0-95.424-11.84-177.664-31.104-250.88z" />
<glyph unicode="&#xe636;" glyph-name="uniE636" d="M832 383.936c-160 64-192 192-192 192v383.936h-256v-383.936c0 0-32-128-192-192 0 0-64-199.296-64-294.016 0-80.128 64-153.984 64-153.984h640c0 0 64 73.856 64 153.984 0 94.72-64 294.016-64 294.016zM448 895.936h128v-64h-128v64zM256 355.52c160 92.416 192 156.416 192 156.416v256h128v-256c0 0 64-96 192-156.416 0 0 5.632-14.528 13.248-35.648h-538.496c7.616 21.12 13.248 35.648 13.248 35.648zM768-0.064h-512c0 0-29.632 27.072-48.512 63.936h609.024c-18.88-36.864-48.512-63.936-48.512-63.936zM192.704 127.936c1.792 34.56 14.592 83.648 28.48 127.936h581.696c13.888-44.288 26.624-93.376 28.352-127.936h-638.528z" />
<glyph unicode="&#xe637;" glyph-name="uniE637" d="M681.152 906.944c-43.392 26.496-103.36 44.16-179.072 50.112-17.728 1.664-35.648 2.816-54.080 2.816s-36.352-1.152-54.016-2.816c-75.712-5.888-135.744-23.616-179.136-50.112-91.52-46.784-150.848-120.256-150.848-203.072 0-52.288 23.616-100.864 64-141.376v-434.624c0-106.112 107.968-192 320-192 211.968 0 320 85.888 320 192v434.688c40.384 40.448 64 89.024 64 141.312 0 82.816-59.264 156.288-150.848 203.072zM448 895.872c176.704 0 256-57.344 256-128s-79.232-128-256-128c-176.768 0-256 57.28-256 128s79.232 128 256 128zM448-0.128c-176.768 0-256 57.28-256 128v385.6c67.968-40.64 157.504-65.6 256-65.6v-320.128c0 0 157.248-19.392 256 18.368v-18.24c0-70.72-79.232-128-256-128zM704 206.592c-81.28-33.152-192-14.848-192-14.848v260.16c72.96 8.32 139.072 29.952 192 61.568v-306.88zM448 511.872c-176.768 0-320 85.952-320 192 0 9.6 2.432 18.752 4.672 27.968 22.144-88.768 127.936-155.968 315.328-155.968 187.328 0 293.12 67.2 315.328 156.032 2.304-9.28 4.672-18.432 4.672-28.032 0-106.048-143.232-192-320-192z" />
<glyph unicode="&#xe638;" glyph-name="uniE638" d="M512 959.936c-282.752 0-512-229.248-512-512 0-282.816 229.248-512 512-512s512 229.184 512 512c0 282.752-229.248 512-512 512zM512-0.064c-247.424 0-448 200.576-448 448s200.576 448 448 448c247.36 0 448-200.576 448-448s-200.64-448-448-448zM512 703.936c-141.376 0-256-114.624-256-256s114.624-256 256-256 256 114.624 256 256-114.624 256-256 256zM512 255.872c-106.048 0-192 86.016-192 192.064 0 105.984 85.952 192 192 192 105.984 0 192-86.016 192-192 0-106.048-86.016-192.064-192-192.064z" />
<glyph unicode="&#xe639;" glyph-name="uniE639" d="M851.392 712.512c-41.28 117.76-132.736 226.56-147.392 243.52v3.968h-64v-17.024l-0.128-0.064 0.128-0.192v-1006.784h64v448h192v16.96l0.128 0.064c0 0 7.36 162.048-44.736 311.552zM704 447.936v406.144c33.28-50.624 71.744-117.056 95.232-184.256 29.12-83.392 36.096-166.72 37.12-221.888h-132.352zM448 704h-64v256h-64v-256h-64v256h-64v-384c0-70.72 57.344-128.064 128-128.064v-512h64v512c70.656 0 128 57.344 128 128.064v384h-64v-256zM448 576c0-35.392-28.672-64.064-64-64.064h-64c-35.328 0-64 28.672-64 64.064v63.936h192v-63.936z" />
<glyph unicode="&#xe63a;" glyph-name="uniE63A" d="M736 959.68c-123.776 0-224-114.624-224-255.936 0-128.832 83.648-234.368 192-252.16v-515.648h64v515.648c108.352 17.792 192 123.392 192 252.16 0 141.312-100.224 255.936-224 255.936zM736 511.552c-88.384 0-160 86.016-160 192.192 0 106.112 71.68 192.192 160 192.192s160-86.080 160-192.192c0-106.176-71.616-192.192-160-192.192zM320 704.768h-64v254.848h-64v-254.848h-64v254.848h-64v-377.664c0-74.048 57.344-134.144 128-134.144v-511.872h64v511.872c70.656 0 128 60.032 128 134.144v377.664h-64v-254.848zM320 579.392c0-37.44-28.672-67.84-64-67.84h-64c-35.328 0-64 30.4-64 67.84v59.584h192v-59.584z" />
<glyph unicode="&#xe63b;" glyph-name="uniE63B" d="M448 928v-192c0-59.584-8.896-109.248-64-123.52v347.52l-64-0.128v-351.936c-55.104 14.272-64 68.48-64 128.064v192c0 11.136 0 31.872 0 31.872h-64v-223.872c0-95.104 37.312-173.504 128-188.8v-611.2h64v611.2c90.688 15.296 128 93.696 128 188.8v223.872h-64v-31.872zM851.392 712.512c-40.512 115.904-130.624 224-147.392 243.52v3.968h-64v-17.024h-0.128l0.128-0.256v-1006.72h64v448h192v16.96l0.128 0.064c0 0 7.36 161.984-44.736 311.488zM704 447.936v406.272c33.28-50.688 71.744-117.184 95.232-184.32 28.992-83.2 36.224-166.784 37.248-221.952h-132.48z" />
<glyph unicode="&#xe63c;" glyph-name="uniE63C" d="M736 960c-123.776 0-224-129.024-224-288.064 0-145.024 83.52-264.704 192-284.672v-451.264h64v451.264c108.48 20.032 192 139.712 192 284.672 0 159.040-100.224 288.064-224 288.064zM736 447.936c-88.384 0-160 100.288-160 224 0 123.776 71.68 224 160 224s160-100.224 160-224c0-123.712-71.616-224-160-224zM320 928v-192c0-59.584-8.896-109.248-64-123.52v347.52h-64v-347.52c-55.104 14.272-64 63.936-64 123.52v223.872h-64v-223.872c0-95.104 37.312-173.504 128-188.8v-611.2h64v611.2c90.688 15.296 128 93.696 128 188.8v223.872h-64v-31.872z" />
<glyph unicode="&#xe63d;" glyph-name="uniE63D" d="M901.504 556.672c-50.88 85.12-41.856 145.088-41.472 147.264 2.112 11.776-2.368 23.68-11.776 31.040s-22.016 9.024-32.896 4.096c-2.752-1.28-67.776-31.296-92.864-119.488-6.4-22.272-10.496-45.12-13.12-66.688-9.344 15.68-17.984 31.36-24.256 44.864-68.608 148.544-36.224 322.944-36.032 324.672 2.112 10.944-1.6 22.272-9.728 29.76-8.256 7.488-19.584 10.24-30.464 7.104-8.384-2.368-204.032-62.016-250.368-311.040-16.896-90.688-6.528-179.136 7.040-237.888-20.032 13.568-37.76 33.216-55.296 60.8-26.112 41.216-45.888 115.392-46.080 116.16-3.328 12.608-13.952 21.888-26.88 23.616-13.056 1.344-25.536-4.736-31.936-16.128-3.136-5.504-76.48-137.6-76.48-260.224 0-230.976 171.136-398.656 412.416-398.656 243.072 0 419.456 167.616 419.456 398.656 0 95.488-13.248 145.344-59.264 222.080zM541.312 0.192c-204.224 0-348.416 140.608-348.416 334.464 0 54.656 18.112 113.664 35.648 158.080 7.872-19.456 17.216-39.36 27.648-55.872 58.304-92.032 148.352-115.584 152.32-116.544 11.648-2.752 23.68 1.216 31.552 10.048 7.808 8.96 10.048 21.568 5.824 32.64-0.576 1.344-49.728 137.408-24.448 273.472 25.984 139.904 106.944 208.64 159.68 239.36-5.248-70.208-6.144-192.192 45.888-305.024 25.152-54.4 81.984-135.104 84.48-138.496 8.256-11.776 23.232-16.512 36.736-11.712s22.272 17.984 21.248 32.32c0 0.832-4.992 80.768 14.528 148.992 4.352 15.168 10.24 27.776 16.64 38.016 6.272-31.808 19.392-71.744 46.016-116.224 39.872-66.56 50.112-105.408 50.112-189.056 0-193.856-149.504-334.464-355.456-334.464z" />
<glyph unicode="&#xe63e;" glyph-name="uniE63E" d="M320 287.936c0-123.712 100.288-223.936 224-223.936 123.776 0 224 100.224 224 223.936 0 123.776-224 352.064-224 352.064s-224-228.288-224-352.064zM544 127.936c-88.32 0-160 71.68-160 160 0 88.384 160 256 160 256s160-167.616 160-256c0-88.32-71.616-160-160-160zM544 960c0 0-416-378.24-416-608 0-229.824 186.24-416.064 416-416.064s416 186.24 416 416.064c0 229.76-416 608-416 608zM544 0c-194.368 0-352 157.568-352 352 0 194.368 352 512 352 512s352-317.632 352-512c0-194.432-157.632-352-352-352z" />
<glyph unicode="&#xe63f;" glyph-name="uniE63F" d="M767.488 959.872h-511.104c-141.12 0-255.552-143.296-255.552-320 0 0 0-0.064 0-0.064h-0.832v-128h0.896v-575.936h575.040v320h191.488c0.128 0 0.128 0 0.128 0 141.248 0 255.616 157.632 255.616 352-0.064 194.432-114.432 352-255.68 352zM512-0.128h-447.168v637.824c0 0.704-0.128 1.408-0.128 2.176 0 141.376 85.888 256 191.68 256 0.256 0 0.448-0.064 0.704-0.064h151.36c-0.064 0.064-0.128 0.064-0.128 0.064h212.544c-65.728-63.68-108.864-168.832-108.864-288 0-10.816 0-608 0-608zM767.488 319.872c0 0 0 0-0.128 0h-63.36v-0.128l-128.32 0.128 2.368 319.936c10.688 143.808 90.816 256.064 189.44 256.064 105.856 0 191.744-128.96 191.744-288 0-159.104-85.888-288-191.744-288zM799.488 767.872c-51.584 0-93.504-68.352-95.488-153.792v-12.416c1.984-85.376 43.904-153.792 95.488-153.792 52.864 0 95.872 71.616 95.872 160s-43.008 160-95.872 160zM799.488 511.872c-17.6 0-32 42.944-32 96 0 52.992 14.4 96 32 96s32-43.008 32-96c0-53.056-14.336-96-32-96z" />
<glyph unicode="&#xe640;" glyph-name="uniE640" d="M768 895.936h-192v64h-128v-64h-192c-70.656 0-128-57.344-128-128 0-59.648 40.896-109.184 96-123.52v-68.544c0-35.264 28.672-63.936 64-63.936h32v-128c-35.328 0-64-28.672-64-64v-384h512v384c0 35.328-28.608 64-64 64v128h32c35.392 0 64 28.672 64 63.936v68.544c55.104 14.336 96 63.872 96 123.52 0 70.656-57.28 128-128 128zM704 63.936v-64h-384v288c0 17.6 14.336 32 32 32h320c17.6 0 32-14.4 32-32v-224zM384 383.936v128h256v-128h-256zM736 607.936c0-17.664-14.4-32.064-32-32.064h-384c-17.664 0-32 14.4-32 32.064v32h448v-32zM768 703.936h-512c-35.328 0-64 28.608-64 64 0 35.328 28.672 63.936 64 63.936h512c35.392 0 64-28.608 64-63.936 0-35.392-28.608-64-64-64z" />
<glyph unicode="&#xe641;" glyph-name="uniE641" d="M800 831.936h-224v64h-128v-64h-224c-17.664 0-32-14.336-32-32s14.336-32 32-32h32v-192c0-35.328 28.672-64 64-64v-128c-35.328 0-64-28.672-64-64v-384h512v384c0 35.328-28.608 64-64 64v128c35.392 0 64 28.672 64 64v192h32c17.6 0 32 14.336 32 32s-14.4 32-32 32zM704 63.936v-64h-384v288c0 17.6 14.336 32 32 32h320c17.6 0 32-14.4 32-32v-224zM384 383.936v128h256v-128h-256zM704 607.936c0-17.664-14.4-32-32-32h-320c-17.664 0-32 14.336-32 32v32h384v-32zM704 703.936h-384v32c0 17.664 14.336 32 32 32h320c17.6 0 32-14.336 32-32v-32z" />
<glyph unicode="&#xe642;" glyph-name="uniE642" d="M1023.104 224c0 254.272-179.904 461.824-445.248 478.4v65.472h94.144c17.6 0 32 14.336 32 32s-14.4 32-32 32h-256c-17.664 0-32-14.336-32-32s14.336-32 32-32h94.080v-65.472c-265.344-16.576-445.184-224.128-445.184-478.4 0-10.816 0-32.064 0-32.064v-63.936h958.272v63.936c-0.064 0-0.064 21.248-0.064 32.064zM953.472 191.936h-819.008c-0.832 10.624-1.728 21.248-1.728 32.064 0 229.76 167.552 415.936 411.2 415.936 243.776 0 411.264-186.176 411.264-415.936 0.064-10.816-0.832-21.44-1.728-32.064zM989.12 63.936h-890.304c-18.752 0-33.92-14.336-33.92-32 0-17.6 15.168-32 33.92-32h890.304c18.752 0 33.984 14.4 33.984 32 0 17.664-15.232 32-33.984 32z" />
<glyph unicode="&#xe643;" glyph-name="uniE643" d="M989.12 64h-954.304c-18.752 0-33.92-14.4-33.92-32.064 0-17.6 15.168-31.936 33.92-31.936h954.304c18.752 0 33.984 14.336 33.984 31.936 0 17.664-15.232 32.064-33.984 32.064zM639.744 688.064v58.56c0 82.496-57.152 149.312-127.744 149.312s-127.808-66.816-127.808-149.312v-58.624c-236.544-58.304-383.296-272.64-383.296-464.064 0 9.408 0-96 0-96h1022.272c0 0 0 105.408 0 96-0.064 191.424-146.816 405.76-383.424 464.128zM448.064 751.936c0 44.16 28.608 80 63.936 80s63.936-35.84 63.936-80v-52.032c-20.864 2.432-42.048 3.968-63.936 3.968s-43.136-1.536-63.936-4.032v52.096zM959.232 192h-894.464c0 0 0 16.32 0 21.312 0 198.976 175.36 426.56 447.232 426.56s447.232-227.584 447.232-426.56c0-4.992 0-21.312 0-21.312z" />
<glyph unicode="&#xe644;" glyph-name="uniE644" d="M576 959.616h-64v-191.168h64v191.168zM768 895.872h-64v-127.424h64v127.424zM384 895.872h-64v-127.424h64v127.424zM960 575.232c0 27.648 0 129.408 0 129.408h-896c0 0 0-101.824 0-129.408 0-176.832 103.296-328.32 252.032-401.216l-123.776-204.864 57.216-33.152 129.024 213.632c42.432-13.248 86.72-22.528 133.504-22.528 46.848 0 91.136 9.28 133.504 22.592l129.024-213.632 57.28 33.152-123.904 204.864c148.736 72.832 252.096 224.384 252.096 401.152zM512 191.744c-212.096 0-384 172.032-384 384.384 0 21.504-3.776 43.392 0 63.744h768c3.776-20.352 0-42.24 0-63.744 0-212.288-171.904-384.384-384-384.384z" />
<glyph unicode="&#xe645;" glyph-name="uniE645" d="M384 383.936h-64v-127.936h64v127.936zM320 575.936h64v128h-64v-128zM832 959.936h-576c-35.328 0-64-28.672-64-64v-895.936c0-35.392 28.672-64.064 64-64.064h576c35.392 0 64 28.672 64 64.064v895.936c0 35.328-28.608 64-64 64zM832 31.936c0-17.664-14.4-31.936-32-31.936h-512c-17.664 0-32 14.272-32 31.936v416h576v-416zM832 512h-576v351.936c0 17.664 14.336 32 32 32h512c17.6 0 32-14.336 32-32v-351.936z" />
<glyph unicode="&#xe646;" glyph-name="uniE646" d="M864 512h-64c-17.6 0-32-14.336-32-32s14.4-32 32-32h64c17.6 0 32 14.336 32 32s-14.4 32-32 32zM640 704h-448c-35.328 0-64-28.672-64-64v-384c0-35.392 28.672-64 64-64h448c35.392 0 64 28.608 64 64v384c0 35.328-28.608 64-64 64zM640 287.936c0-17.6-14.4-31.936-32-31.936h-384c-17.664 0-32 14.336-32 31.936v320.064c0 17.6 14.336 32 32 32h384c17.6 0 32-14.4 32-32v-320.064zM864 640h-64c-17.6 0-32-14.336-32-32s14.4-32 32-32h64c17.6 0 32 14.336 32 32s-14.4 32-32 32zM960 832h-896c-35.328 0-64-28.672-64-64v-640.064c0-35.328 28.672-63.936 64-63.936h896c35.392 0 64 28.608 64 63.936v640.064c0 35.328-28.608 64-64 64zM960 160c0-17.664-14.4-32.064-32-32.064h-832c-17.664 0-32 14.4-32 32.064v575.936c0 17.728 14.336 32.064 32 32.064h832c17.6 0 32-14.336 32-32.064v-575.936z" />
<glyph unicode="&#xe647;" glyph-name="uniE647" d="M1002.624 511.936l-106.624 320h-64v128h-576v-128h-64l-128-384h64v-512h832v512h64l-21.376 64zM320 895.872h448v-64h-448v64zM654.656 767.872l83.264-255.936h-161.92v255.936h78.656zM512 767.872v-255.936h-161.792l83.136 255.936h78.656zM234.688 767.936h21.312v-0.064h97.856l-83.2-255.936h-121.344l85.376 256zM896-0.064h-704v128h704v-128zM896 191.936h-704v256h704v-256zM817.344 511.936l-83.2 255.936 119.232 0.064 85.248-256h-121.28z" />
<glyph unicode="&#xe648;" glyph-name="uniE648" d="M640 511.936h128v64h-128v-64zM640 383.936h128v64h-128v-64zM640 255.936h128v64h-128v-64zM768 767.936h-512v-64h512v64zM512 575.936h-256v-64h256v64zM64 959.936v-1024h64l128 96 127.232-96 128.768 96 128-96 128 96 128-96h64v1024h-896zM896-0.064l-128 96-128-96-128 96-128-96-128 96-128-96v896.064h768v-896.064zM512 319.936h-256v-64h256v64zM512 447.936h-256v-64h256v64z" />
<glyph unicode="&#xe649;" glyph-name="uniE649" d="M768 511.936h-512v-64h512v64zM768 767.936h-512v-64h512v64zM768 383.936h-512v-64h512v64zM64 959.936v-1024h64l128 96 127.232-96 128.768 96 128-96 128 96 128-96h64v1024h-896zM896-0.064l-128 96-128-96-128 96-128-96-128 96-128-96v896.064h768v-896.064z" />
<glyph unicode="&#xe64a;" glyph-name="uniE64A" d="M889.6 959.936l-125.376-128-123.136 128-132.032-128-127.232 128-132.352-128-118.272 128h-67.2v-1024h896v1024h-70.4zM896-0.064h-768v896l129.728-128 123.776 128 127.488-128 132.224 128 126.272-128 128.512 128v-896zM522.56 384.256v144.704c39.296-5.312 75.84-21.952 103.808-51.136l35.136 40.512c-34.368 33.856-80.768 56.384-138.944 61.056v61.056h-42.816v-60.416c-84.224-5.952-145.28-54.4-145.28-122.752 0-81.664 73.664-104.256 145.28-122.816v-161.344c-55.488 5.952-98.304 32.512-124.928 62.4l-35.072-42.496c35.072-37.824 89.152-65.664 160-69.696v-59.072h42.816v59.072c108.864 7.296 149.44 69.696 149.44 129.408 0 87.040-77.12 112.192-149.44 131.52zM479.744 394.816c-47.744 13.312-84.928 29.184-84.928 65.728 0 38.528 35.072 66.368 84.928 69.696v-135.424zM522.56 172.416v151.424c49.152-13.952 89.088-31.872 89.088-75.008 0-31.872-22.4-69.76-89.088-76.416z" />
<glyph unicode="&#xe64b;" glyph-name="uniE64B" d="M1017.344 600.448l-139.648 267.456c-8.128 15.616-29.12 28.352-46.72 28.352h-321.792c-0.128 0-0.32 0.064-0.448 0.128-0.192-0.064-0.32-0.128-0.448-0.128h-316.032c-17.536 0-38.656-12.736-46.912-28.288l-139.2-262.272c-8.256-15.488-6.656-39.936 3.648-54.272l479.104-605.12c5.12-7.168 11.968-10.816 18.752-10.816s13.504 3.52 18.688 10.56l37.568 46.336 6.016 1.984-1.408 3.648 444.8 548.288c10.432 14.208 12.16 38.592 4.032 54.144zM836.864 808.32l87.616-168h-154.368l66.752 168zM777.6 832.256l-70.976-178.752-133.312 178.752h204.288zM508.992 831.936l143.36-191.616h-286.784l143.424 191.616zM445.568 832.256l-137.664-183.744-73.664 183.744h211.328zM182.4 801.408l63.68-161.152h-149.248l85.568 161.152zM71.040 576.32h182.72l-0.256-0.384h17.984l196.032-495.936-396.48 496.32zM507.136 151.040l-170.368 425.28h339.2l-168.832-425.28zM545.792 75.328l198.72 500.608h20.032l-0.256 0.384h191.616l-410.112-500.992z" />
<glyph unicode="&#xe64c;" glyph-name="uniE64C" d="M672 831.936h-320v-64h320v64zM585.152 575.936l182.848 224v128l-109.76 32h-292.544l-109.696-32v-128l182.848-224h146.304zM320 895.936h384v-96l-153.6-160h-76.8l-153.6 160v96zM715.392 644.48l-11.392-68.544h-1.728c78.336-58.368 129.728-150.848 129.728-256 0-176.768-143.232-320-320-320s-320 143.232-320 320c0 105.152 51.392 197.632 129.728 256h-1.728l-11.456 68.544c-108.096-67.904-180.544-187.392-180.544-324.544 0-212.032 171.904-384 384-384s384 171.968 384 384c0 137.152-72.512 256.64-180.608 324.544z" />
<glyph unicode="&#xe64d;" glyph-name="uniE64D" d="M768 895.936h-64v-64h64c35.392 0 64-28.608 64-64v-640c0-35.328-28.608-64-64-64h-512c-35.328 0-64 28.672-64 64v640c0 35.392 28.672 64 64 64h64v64h-64c-70.656 0-128-57.344-128-128v-640c0-70.656 57.344-128 128-128h64v-64h64v64h256v-64h64v64h64c70.72 0 128 57.344 128 128v640c0 70.656-57.28 128-128 128zM320 255.936h384v64h-384v-64zM704 511.936h-384v-63.936h384v63.936zM704 703.936h-384v-64h384v64zM640 959.936h-256v-64h256v64z" />
<glyph unicode="&#xe64e;" glyph-name="uniE64E" d="M640 959.936h-256v-64h256v64zM768 767.936h-512v-64h512v64zM768 895.936h-64v-64h64c35.392 0 64-28.608 64-64v-640c0-35.328-28.608-64-64-64h-512c-35.328 0-64 28.672-64 64v640c0 35.392 28.672 64 64 64h64v64h-64c-70.656 0-128-57.344-128-128v-640c0-70.656 57.344-128 128-128h64v-64h64v64h256v-64h64v64h64c70.72 0 128 57.344 128 128v640c0 70.656-57.28 128-128 128zM256 639.936v-448c0-35.328 28.672-64 64-64h384c35.392 0 64 28.672 64 64v448h-512zM672 575.936h32v-352c0-17.664-14.4-32-32-32h-320c-17.664 0-32 14.336-32 32v352h352z" />
<glyph unicode="&#xe64f;" glyph-name="uniE64F" d="M588.736 528.192c67.776 29.632 115.264 97.024 115.264 175.744 0 106.048-86.016 192-192 192-106.048 0-192-85.952-192-192 0-10.944 1.152-21.568 2.944-32h65.6c-2.688 10.304-4.544 20.864-4.544 32 0 70.656 57.344 128.064 128 128.064 70.72 0 128-57.344 128-128.064s-57.28-128-128-128v-64l416-448c-0.512 0.064 76.032-64-64-64h-704c-140.544 0-63.424 62.336-64 64l312 288h-99.456l-308.544-288c0-35.392 28.672-127.936 64-127.936h896c35.392 0 64 92.544 64 127.936l-435.264 464.256z" />
<glyph unicode="&#xe650;" glyph-name="uniE650" d="M960 319.296h-24.896c15.552 22.464 24.896 49.856 24.896 79.68 0 74.88-57.28 135.552-128 135.552-3.392 0-6.4-0.832-9.728-1.088l-374.272 170.56c-162.752-175.104-384 0-384 0v-384.704c-35.328 0-64-28.544-64-63.808v-63.744c0-35.264 28.672-63.808 64-63.808h896c35.392 0 64 28.544 64 63.808v63.744c0 35.264-28.608 63.808-64 63.808zM128 604.544c179.52-106.56 335.232 35.648 335.232 35.648l110.656-53.504c-0.128-0.064-0.192-0.128-0.256-0.192l-120.896-71.68c-9.792-15.424-3.968-35.136 13.056-44.032 17.024-8.96 38.72-3.648 48.576 11.84 0 0 121.408 73.28 121.792 73.984l69.632-33.664c-1.408-1.472-125.056-75.904-125.056-75.904-9.792-15.424-3.968-35.136 12.992-43.968s38.72-3.648 48.64 11.84c0 0 122.752 76.48 123.648 78.912 0 0 63.488-27.008 65.984-27.008 35.392 0 64-30.4 64-67.84s-64-79.744-64-79.744h-704v285.312zM928 191.744h-832c-17.664 0-32 14.336-32 31.872 0 17.6 14.336 31.872 32 31.872h832c17.6 0 32-14.272 32-31.872 0-17.536-14.4-31.872-32-31.872z" />
<glyph unicode="&#xe651;" glyph-name="uniE651" d="M704 511.744v448.64l-256-154.496v-166.016h-64v-128.128h-64v-575.808h448v575.808h-64zM512 800.064l128 31.808v-192h-128v160.192zM448.32 576.32h191.424v-64.576h-191.424v64.576zM704-0.576h-320v448.768h320v-448.768z" />
<glyph unicode="&#xe652;" glyph-name="uniE652" d="M928 703.936l-241.6-145.024c-11.776 10.368-28.032 17.024-46.4 17.024h-256c-18.368 0-34.688-6.656-46.4-17.024l-241.6 145.024c-53.056 0-96-42.944-96-96v-384c0-52.992 42.944-96 96-96l241.6 145.024c11.712-10.432 27.968-17.024 46.4-17.024h256c18.368 0 34.752 6.656 46.4 17.024l241.6-145.024c52.992 0 96 43.008 96 96v384c0 53.056-43.008 96-96 96zM320 447.936h-96c-17.664 0-32-14.336-32-32s14.336-31.936 32-31.936h96v-64.064l-256-128v448l256-149.312v-42.688zM640 343.936c0-13.248-14.4-24-32-24h-192c-17.664 0-32 10.752-32 24v144c0 13.248 14.336 24 32 24h192c17.6 0 32-10.752 32-24v-144zM960 191.936l-256 128v64.064h96c17.6 0 32 14.272 32 31.936s-14.4 32-32 32h-96v42.688l256 149.312v-448z" />
<glyph unicode="&#xe653;" glyph-name="uniE653" d="M522.56 480.192v144.768c39.296-5.312 75.84-21.952 103.808-51.136l35.136 40.448c-34.368 33.856-80.768 56.384-138.944 61.12v61.056h-42.816v-60.352c-84.224-6.016-145.28-54.464-145.28-122.816 0-81.664 73.664-104.256 145.28-122.816v-161.344c-55.488 5.952-98.304 32.512-124.928 62.4l-35.072-42.496c35.072-37.824 89.152-65.664 160-69.696v-59.072h42.816v59.072c108.736 7.296 149.44 69.696 149.44 129.408 0 87.040-77.12 112.192-149.44 131.456zM479.744 490.88c-47.744 13.248-84.928 29.184-84.928 65.664 0 38.528 35.072 66.368 84.928 69.696v-135.36zM522.56 268.416v151.424c49.088-13.952 89.088-31.936 89.088-75.008 0-31.872-22.4-69.76-89.088-76.416zM512 959.936c-282.752 0-512-229.184-512-512 0-282.752 229.248-512 512-512s512 229.248 512 512c0 282.816-229.248 512-512 512zM512-0.064c-247.424 0-448 200.64-448 448 0 247.424 200.576 448 448 448 247.36 0 448-200.576 448-448 0-247.36-200.64-448-448-448z" />
<glyph unicode="&#xe654;" glyph-name="uniE654" d="M512 959.936c-282.752 0-512-229.184-512-512 0-282.752 229.248-512 512-512s512 229.248 512 512c0 282.816-229.248 512-512 512zM512-0.064c-247.424 0-448 200.64-448 448 0 247.424 200.576 448 448 448 247.36 0 448-200.576 448-448 0-247.36-200.64-448-448-448zM694.72 575.936h76.224c-40.256 75.84-119.104 128-211.008 128-91.84 0-170.688-52.16-211.008-128h-60.928c-17.664 0-32-14.336-32-32 0-17.6 14.336-32 32-32h36.864c-3.2-15.488-4.864-31.552-4.864-48 0-5.504 1.28-10.624 1.6-16h-33.6c-17.664 0-32-14.336-32-32s14.336-32 32-32h46.656c33.088-92.992 120.96-160 225.28-160 78.272 0 147.136 38.080 190.912 96h-90.112c-28.608-20.032-63.232-32-100.8-32-68.16 0-126.656 39.232-155.904 96h171.968c17.664 0 32 14.336 32 32s-14.4 32-32 32h-190.4c-0.448 5.376-1.6 10.496-1.6 16 0 16.768 3.072 32.64 7.488 48h184.512c17.664 0 32 14.4 32 32 0 17.664-14.4 32-32 32h-150.72c32.256 38.784 80.32 64 134.72 64s102.528-25.216 134.72-64z" />
<glyph unicode="&#xe655;" glyph-name="uniE655" d="M586.112 271.68c-36.672 0-55.040 26.624-96.96 26.624-11.776 0-24.256-2.56-34.048-5.888 26.88 18.88 49.792 46.208 49.792 85.888 0 10.368-1.984 19.52-4.608 27.968h79.936v35.008h-98.24c-22.336 29.952-52.48 54.656-52.48 102.144 0 51.968 43.264 83.2 93.056 83.2 40 0 72.128-25.344 83.264-53.312l43.904 25.984c-24.256 46.208-72.704 72.832-132.416 72.832-79.296 0-146.816-55.872-146.816-128.064 0-47.424 26.88-75.456 50.496-102.72h-68.8v-35.072h94.4c5.888-11.776 9.856-24.704 9.856-39.040 0-38.912-30.784-74.752-86.528-98.752l19.008-41.024c27.52 14.336 55.040 26.048 77.312 26.048 49.216 0 58.368-29.952 117.312-29.952 41.344 0 70.272 12.992 88.512 30.592l-23.488 43.584c-8.704-11.776-33.6-26.048-62.464-26.048zM512 959.936c-282.752 0-512-229.184-512-512 0-282.752 229.248-512 512-512s512 229.248 512 512c0 282.816-229.248 512-512 512zM512-0.064c-247.424 0-448 200.64-448 448 0 247.424 200.576 448 448 448 247.36 0 448-200.576 448-448 0-247.36-200.64-448-448-448z" />
<glyph unicode="&#xe656;" glyph-name="uniE656" d="M512 959.936c-282.752 0-512-229.184-512-512 0-282.752 229.248-512 512-512s512 229.248 512 512c0 282.816-229.248 512-512 512zM512-0.064c-247.424 0-448 200.64-448 448 0 247.424 200.576 448 448 448 247.36 0 448-200.576 448-448 0-247.36-200.64-448-448-448zM647.232 639.808l-103.872-170.048h-63.36l-103.168 170.048h-56.896l128.384-223.872h-96v-32h128v-64h-128v-32h128v-128h64v128h128.064v32h-128.064v64h128.064v32h-96l127.744 223.872z" />
<glyph unicode="&#xe657;" glyph-name="uniE657" d="M992 383.936h-960c-0.448 0-0.768-0.192-1.216-0.256 0 0-0.064 0-0.064 0-7.808-0.32-14.848-3.392-20.224-8.32-0.384-0.384-0.96-0.192-1.28-0.576-0.384-0.32-0.256-0.896-0.576-1.216-4.928-5.376-8.064-12.416-8.384-20.288 0 0 0-0.064 0-0.128-0.064-0.32-0.256-0.704-0.256-1.152 0-11.52 6.464-21.12 15.616-26.752l316.928-316.032c11.968-11.968 31.296-11.968 43.264 0 11.968 11.904 11.968 31.168 0 43.072l-268.544 267.84h884.736c17.6 0 32 14.272 32 31.872 0 17.664-14.4 31.936-32 31.936zM32 511.936h960c0.384 0 0.768 0.256 1.152 0.256 0.128 0 0.128 0 0.128 0 7.872 0.384 14.848 3.456 20.224 8.448 0.384 0.32 1.024 0.128 1.344 0.512 0.256 0.32 0.128 0.896 0.512 1.28 4.864 5.376 8 12.416 8.384 20.224 0 0.064 0 0.128 0 0.128 0 0.384 0.256 0.768 0.256 1.152 0 11.584-6.4 21.184-15.616 26.816l-316.864 316.992c-12.032 11.904-31.36 11.904-43.264 0-12.032-11.968-12.032-31.296 0-43.264l268.48-268.544h-884.736c-17.664 0-32-14.336-32-32s14.336-32 32-32z" />
<glyph unicode="&#xe658;" glyph-name="uniE658" d="M959.488 42.176l-232.768 894.016c-3.072 11.392-12.096 19.136-22.72 22.016v1.664h-63.872c0 0 0 0.064-0.128 0.064h-256c-0.064 0-0.064-0.064-0.192-0.064h-63.808v-1.664c-10.688-2.88-19.712-10.624-22.72-22.016l-232.768-894.016c-4.608-17.024 5.568-34.432 22.72-38.976l248.192-65.984c17.152-4.544 34.752 5.504 39.36 22.528l137.216 527.168 137.28-527.232c4.608-17.024 22.272-27.072 39.36-22.528l248.128 65.984c17.088 4.608 27.328 22.080 22.72 39.040zM858.112 48.256l-124.096-33.024c-17.152-4.544-34.752 5.504-39.36 22.528l-180.672 698.176h-3.968l-180.672-698.176c-4.608-17.024-22.208-27.072-39.36-22.528l-124.096 33.024c-17.152 4.544-27.264 22.016-22.656 38.976l176.128 680.704h96.64v64h-80.064l16.064 63.936h320l16.128-63.936h-80.128v-64h96.64l176.256-680.704c4.48-16.96-5.632-34.432-22.784-38.976z" />
<glyph unicode="&#xe659;" glyph-name="uniE659" d="M959.488 170.176l-232.768 574.016c-3.072 11.328-12.096 19.136-22.72 22.016v1.664l-320 0.064c-0.064 0-0.064-0.064-0.128-0.064h-63.872v-1.664c-10.688-2.88-19.712-10.688-22.72-22.016l-232.768-574.016c-4.608-17.024 5.568-34.496 22.72-39.040l312.192-65.92c17.152-4.544 34.752 5.504 39.36 22.592l73.216 180.544 73.28-180.608c4.608-17.088 22.272-27.136 39.36-22.592l312.128 65.92c17.088 4.608 27.328 22.144 22.72 39.104zM858.112 176.256l-188.096-33.024c-17.152-4.544-34.752 5.568-39.36 22.528l-118.656 268.224-118.656-268.224c-4.608-16.96-22.208-27.072-39.36-22.528l-188.096 33.024c-17.152 4.544-27.264 22.080-22.72 39.040l159.616 360.64h113.216v64h-84.928l20.928 63.936h320l20.864-63.936h-84.864v-64h113.28l159.616-360.64c4.48-16.96-5.632-34.496-22.784-39.040z" />
<glyph unicode="&#xe65a;" glyph-name="uniE65A" d="M704 831.936c0 0-32-160-192-160s-192 160-192 160l-320-160 64-256 192 32v-447.936h512v447.936l192-32 64 256-320 160zM916.48 488.064l-212.48 23.872v-448h-384v448l-212.544-23.872-29.184 151.488 207.68 103.808c36.48-66.368 107.328-135.36 226.048-135.36s189.632 68.992 226.112 135.36l207.616-103.808-29.248-151.488z" />
<glyph unicode="&#xe65b;" glyph-name="uniE65B" d="M895.168 292.096c-0.192 2.24-0.768 4.416-1.344 6.656-0.256 0.704-0.384 1.344-0.704 2.048-0.768 2.368-1.088 4.8-2.24 7.040l-58.88 168.832v195.2c0 2.496-0.896 4.672-1.408 6.976-0.064 0.256 0 0.448-0.064 0.704l-0.128 0.256c-0.832 3.072-1.984 5.888-3.648 8.512l-50.624 118.016c-4.992 14.656-20.352 24.192-36.672 24.832-1.152 0.128-2.176 0.704-3.456 0.704h-107.712c-26.432 74.432-96.832 128-180.288 128s-153.792-53.568-180.224-128h-107.776c-1.216 0-2.304-0.576-3.456-0.704-16.32-0.576-31.68-10.112-36.736-24.768l-50.56-117.952c-1.6-2.688-2.816-5.504-3.648-8.576l-0.128-0.256c-0.064-0.192 0-0.448-0.064-0.64-0.512-2.368-1.408-4.608-1.408-7.104v-196.096l-58.88-168.448c-1.216-2.304-1.536-4.736-2.304-7.168-0.256-0.576-0.32-1.152-0.576-1.728-0.576-2.304-1.216-4.608-1.408-6.976-0.192-1.472-0.832-2.688-0.832-4.224v-319.424c0-13.184 8.064-24.576 19.52-29.44 3.84-1.6 8.064-2.496 12.48-2.496h832c17.6 0 32 14.336 32 32v320.064c0 1.472-0.576 2.752-0.832 4.16zM640 767.872h75.84l52.16-123.136v-132.864h-128v256zM448 895.872c47.232 0 88.064-25.92 110.272-64h-220.544c22.208 38.144 62.976 64 110.272 64zM320 767.872h256v-256h-256v256zM128 645.248l52.16 122.624h75.84v-256h-128v133.376zM256-0.128v128h384v-128h-384zM832 287.936v-288.064h-128v192h-512v-192h-128v287.36c0 0.704-0.32 1.28-0.384 1.92l55.424 158.72h136.96v-96c0-17.664 14.336-32 32-32s32 14.336 32 32v96h256v-96c0-17.664 14.272-32 32-32 17.664 0 32 14.336 32 32v96h137.28l55.104-158.080c-0.064-0.576-0.384-1.152-0.384-1.856z" />
<glyph unicode="&#xe65c;" glyph-name="uniE65C" d="M895.168 292.096c-0.192 2.24-0.768 4.416-1.344 6.656-0.256 0.704-0.384 1.344-0.704 2.048-0.768 2.368-1.088 4.8-2.24 7.040l-58.88 168.832v195.2c0 2.496-0.896 4.672-1.408 6.976-0.064 0.256 0 0.448-0.064 0.704l-0.128 0.256c-0.832 3.072-1.984 5.888-3.648 8.512l-50.624 118.016c-4.992 14.656-20.352 24.192-36.672 24.832-1.152 0.128-2.176 0.704-3.456 0.704h-107.712c-26.432 74.432-96.832 128-180.288 128s-153.792-53.568-180.224-128h-107.776c-1.216 0-2.304-0.576-3.456-0.704-16.32-0.576-31.68-10.112-36.736-24.768l-50.56-117.952c-1.6-2.688-2.816-5.504-3.648-8.576l-0.128-0.256c-0.064-0.192 0-0.448-0.064-0.64-0.512-2.368-1.408-4.608-1.408-7.104v-196.096l-58.88-168.448c-1.216-2.304-1.536-4.736-2.304-7.168-0.256-0.576-0.32-1.152-0.576-1.728-0.576-2.304-1.216-4.608-1.408-6.976-0.192-1.472-0.832-2.688-0.832-4.224v-319.424c0-13.184 8.064-24.576 19.52-29.44 3.84-1.6 8.064-2.496 12.48-2.496h832c17.6 0 32 14.336 32 32v320.064c0 1.472-0.576 2.752-0.832 4.16zM640 767.872h75.84l52.16-123.136v-132.864h-128v256zM448 895.872c47.232 0 88.064-25.92 110.272-64h-220.544c22.208 38.144 62.976 64 110.272 64zM320 767.872h256v-256h-256v256zM128 645.248l52.16 122.624h75.84v-256h-128v133.376zM832 287.936v-288.064h-768v287.36c0 0.704-0.32 1.28-0.384 1.92l55.424 158.72h136.96v-96c0-17.664 14.336-32 32-32s32 14.336 32 32v96h256v-96c0-17.664 14.272-32 32-32 17.664 0 32 14.336 32 32v96h137.28l55.104-158.080c-0.064-0.576-0.384-1.152-0.384-1.856zM192 127.872h512v64h-512v-64z" />
<glyph unicode="&#xe65d;" glyph-name="uniE65D" d="M960 447.936c0 70.656-57.28 128-128 128h-2.496c-12.736 214.592-149.248 384-317.504 384-168.32 0-304.768-169.408-317.504-384h-2.496c-70.656 0-128-57.344-128-128l0.896-5.568c-0.384-2.88-0.896-5.696-0.896-8.704l24.64-140.608c0.384-0.32 0.896-0.704 1.344-1.088l38.016-228.032c0-70.656 57.344-128 128-128h512c70.72 0 128 57.344 128 128l38.016 228.032c0.384 0.384 0.896 0.768 1.344 1.088l24.64 140.608c0 3.008-0.512 5.888-0.896 8.704l0.896 5.568zM512 896c133.376 0 241.728-140.928 253.632-320.064h-507.264c11.904 179.136 120.192 320.064 253.632 320.064zM832 63.936c0-35.392-28.608-64-64-64h-512c-35.328 0-64 28.608-64 64l-28.928 173.504c91.456-59.52 213.888-109.44 348.928-109.44s257.472 49.92 348.864 109.44l-28.864-173.504zM873.024 310.272c-81.344-69.76-212.608-121.472-361.024-121.472s-279.68 51.712-361.088 121.472l-22.912 137.664c0 35.392 28.672 64 64 64h640c35.392 0 64-28.608 64-64l-22.976-137.664zM512 447.936c-35.328 0-64-28.608-64-64 0-35.328 28.672-64 64-64s64 28.672 64 64c0 35.392-28.672 64-64 64z" />
<glyph unicode="&#xe65e;" glyph-name="uniE65E" d="M960 831.872h-128v64.064c0 35.392-28.608 64-64 64h-448c-35.328 0-64-28.608-64-64v-64.064h-128c-35.328 0-64-60.544-64-95.936v-736c0-35.392 28.672-64 64-64h832c35.392 0 64 28.608 64 64v767.936c0 35.392-28.608 64-64 64zM320 820.544l173.76-173.76-141.76-70.848c-17.664 0-32 14.336-32 32v212.608zM512-0.064h-352c-17.664 0-32 14.4-32 32v672c0 17.664 0 63.936 64 63.936h64v-191.936c0-35.328 28.672-64 64-64l192 82.24v-594.24zM339.584 887.744c-1.472 1.472-3.584 1.088-5.248 2.176 5.12 3.52 11.008 6.016 17.664 6.016h384c6.848 0 12.992-2.624 18.24-6.4-2.112-1.344-4.864-0.96-6.656-2.816l-203.52-203.52-204.48 204.544zM768 820.672v-212.736c0-17.664-14.4-32-32-32l-141.888 70.912 173.888 173.824zM960 31.936c0-17.6-14.4-32-32-32h-352v594.368l192-82.368c35.392 0 64 28.672 64 64v191.936h64c64 0 64-46.272 64-63.936v-672zM640 319.936h256v64h-256v-64z" />
<glyph unicode="&#xe65f;" glyph-name="uniE65F" d="M960 831.936h-168c-49.856 76.16-141.632 128-248 128-106.304 0-198.144-51.84-248-128h-168c-35.328 0-64-29.696-64-66.368v-763.264c0-36.672 28.672-66.368 64-66.368h832c35.392 0 64 29.696 64 66.368v763.264c0 36.672-28.608 66.368-64 66.368zM512-0.064h-352c-17.664 0-32 14.976-32 33.408v701.184c0 18.432 14.336 33.344 32 33.344h106.176c-6.016-20.48-10.176-41.664-10.176-63.936 0-131.648 112.192-238.784 256-253.12v-450.88zM320 703.936c0 106.048 100.288 192 224 192 123.776 0 224-85.952 224-192 0-105.984-100.224-192-224-192-123.712 0-224 86.016-224 192zM960 33.344c0-18.432-14.4-33.408-32-33.408h-352v450.88c143.808 14.336 256 121.472 256 253.12 0 22.272-4.224 43.456-10.112 64h106.112c17.6 0 32-14.912 32-33.344v-701.248zM640 319.936h256v64h-256v-64z" />
<glyph unicode="&#xe660;" glyph-name="uniE660" d="M576 63.936h64v320h-64v-320zM544 959.936l-352-288v-672c0-35.392 28.672-64 64-64h576c35.392 0 64 28.608 64 64v672l-352 288zM832 31.936c0-17.6-14.4-32-32-32h-512c-17.664 0-32 14.4-32 32v608l288 256 288-256v-608zM448 63.936h64v320h-64v-320zM416 639.936c0-70.656 57.344-128 128-128s128 57.344 128 128-57.344 128-128 128-128-57.344-128-128zM608 639.936c0-35.328-28.608-64-64-64-35.328 0-64 28.672-64 64 0 35.392 28.672 64 64 64 35.392 0 64-28.608 64-64z" />
<glyph unicode="&#xe661;" glyph-name="uniE661" d="M367.424 226.816l45.312-45.248 226.56 226.304-45.44 45.184-226.432-226.24zM503.36 543.552l-226.56-226.24 45.312-45.248 226.56 226.24-45.312 45.248zM979.136 915.2l-447.232 44.672-514.432-513.856c-24.704-24.704-24.704-64.768 0-89.344l402.624-402.176c24.704-24.704 64.768-24.704 89.472 0l514.368 513.856-44.8 446.848zM487.168 21.44c-12.352-12.288-32.384-12.288-44.736 0l-357.888 357.504c-12.352 12.352-12.352 32.32 0 44.672l469.696 469.248 380.288-22.4 22.4-379.84-469.76-469.184zM666.112 781.12c-49.472-49.344-49.472-129.344 0-178.752 49.344-49.344 129.472-49.344 178.88 0 49.344 49.344 49.344 129.344 0 178.752s-129.472 49.408-178.88 0zM800.256 647.040c-24.768-24.704-64.768-24.704-89.472 0-24.64 24.704-24.64 64.704 0 89.344 24.768 24.704 64.768 24.704 89.472 0s24.768-64.64 0-89.344z" />
<glyph unicode="&#xe662;" glyph-name="uniE662" d="M416 640c0-70.72 57.344-128.064 128-128.064 70.784 0 128 57.344 128 128.064 0 70.656-57.28 127.936-128 127.936-70.656 0-128-57.344-128-127.936zM608 640c0-35.392-28.608-64-64-64-35.328 0-64 28.608-64 64 0 35.328 28.672 64 64 64 35.392 0 64-28.672 64-64zM544 959.936l-352-288v-671.936c0-35.392 28.672-64.064 64-64.064h576c35.392 0 64 28.672 64 64.064v671.936l-352 288zM832 31.936c0-17.6-14.4-31.936-32-31.936h-512c-17.664 0-32 14.336-32 31.936v96h576v-96zM832 191.936h-576v448.064l288 256 288-256v-448.064z" />
<glyph unicode="&#xe663;" glyph-name="uniE663" d="M844.992 602.368c49.344 49.344 49.344 129.344 0 178.752s-129.472 49.344-178.88 0c-49.472-49.344-49.472-129.344 0-178.752 49.408-49.28 129.536-49.28 178.88 0zM710.72 736.448c24.768 24.704 64.768 24.704 89.472 0s24.768-64.704 0-89.344-64.768-24.704-89.472 0c-24.576 24.64-24.576 64.64 0 89.344zM531.904 959.872l-514.432-513.856c-24.704-24.704-24.704-64.768 0-89.344l402.624-402.176c24.704-24.704 64.768-24.704 89.408 0l514.368 513.856 0.128 491.52h-492.096zM487.168 21.44c-12.352-12.288-32.384-12.288-44.736 0l-357.888 357.504c-12.352 12.352-12.352 32.32 0 44.672l67.136 67.072 402.56-402.176-67.072-67.072zM956.864 490.688l-357.888-357.504-402.56 402.112 357.824 357.568 405.76 3.008-3.136-405.184z" />
<glyph unicode="&#xe664;" glyph-name="uniE664" d="M384 64h320v63.936h-320v-63.936zM544 959.936l-352-279.232v-680.192c0-35.648 28.672-64.576 64-64.576h576c35.392 0 64 28.928 64 64.576v680.192l-352 279.232zM832 32.704c0-17.728-14.4-32.192-32-32.192h-512c-17.664 0-32 14.464-32 32.192v615.552l288 247.744 288-247.744v-615.552zM384 544c0-88.384 71.616-160.064 160-160.064s160 71.68 160 160.064c0 88.32-71.616 160-160 160s-160-71.68-160-160zM640 544c0-53.056-43.008-96-96-96s-96 42.944-96 96 42.944 96 96 96c52.992 0 96-42.944 96-96z" />
<glyph unicode="&#xe665;" glyph-name="uniE665" d="M196.416 356.608l223.68-223.424 44.736 44.672-223.68 223.36-44.736-44.608zM858.368 612.992c50.24 50.112 50.24 131.456 0 181.568-50.112 50.112-131.52 50.112-181.76 0-50.112-50.112-50.112-131.456 0-181.568 50.24-50.176 131.648-50.176 181.76 0zM723.136 750.208c25.152 25.088 65.728 25.088 90.88 0s25.152-65.728 0-90.816-65.728-25.088-90.88 0-25.152 65.728 0 90.816zM531.904 959.872l-514.432-513.856c-24.704-24.704-24.704-64.768 0-89.344l402.624-402.176c24.704-24.704 64.768-24.704 89.408 0l514.368 513.856 0.128 491.52h-492.096zM956.864 490.688l-469.696-469.248c-12.352-12.288-32.384-12.288-44.736 0l-357.888 357.504c-12.352 12.352-12.352 32.32 0 44.672l469.696 469.248 405.76 3.008-3.136-405.184z" />
<glyph unicode="&#xe666;" glyph-name="uniE666" d="M843.392 255.68l-99.776-108.608-99.648 108.608-49.856-47.872 102.656-111.808-102.656-111.872 49.856-47.936 99.648 108.672 99.776-108.672 49.728 47.936-102.528 111.872 102.528 111.808-49.728 47.872zM639.232 640c0 70.656-57.024 127.936-127.168 127.936-70.272 0-127.168-57.28-127.168-127.936s56.96-128.064 127.168-128.064c70.208 0 127.168 57.344 127.168 128.064zM512.064 575.936c-35.648 0-64.576 28.672-64.576 64.064 0 35.328 28.928 64 64.576 64s64.512-28.672 64.512-64c0.064-35.392-28.864-64.064-64.512-64.064zM512.064 959.936l-384.064-288v-671.936c0-35.392 31.232-64 69.824-64h314.24v64h-283.968c-19.584 0-35.52 14.336-35.52 32v608l319.488 256 319.552-256v-256h64.512v287.936l-384.064 288z" />
<glyph unicode="&#xe667;" glyph-name="uniE667" d="M192.576 32v608l319.488 256 319.552-256v-256h64.512v287.936l-384 288-384.128-288v-671.936c0-35.392 31.232-64 69.824-64h314.24v64h-283.968c-19.584 0-35.52 14.336-35.52 32zM909.888 255.68l-202.624-220.8-96.512 92.864-49.856-47.936 149.312-143.616 0.128 0.192 0.256-0.192 2.496 2.88 44.032 47.872 202.624 220.864-49.856 47.872zM639.232 640c0 70.656-57.024 127.936-127.168 127.936-70.272 0-127.168-57.28-127.168-127.936s56.96-128.064 127.168-128.064c70.208 0 127.168 57.344 127.168 128.064zM512.064 575.936c-35.648 0-64.576 28.672-64.576 64.064 0 35.328 28.928 64 64.576 64s64.512-28.672 64.512-64c0.064-35.392-28.864-64.064-64.512-64.064z" />
<glyph unicode="&#xe668;" glyph-name="uniE668" d="M511.36 127.936h320.768v64h-320.768v-64zM639.232 640c0 70.656-57.024 127.936-127.168 127.936-70.272 0-127.168-57.344-127.168-127.936 0-70.72 56.96-128.064 127.168-128.064s127.168 57.28 127.168 128.064zM447.552 640c0 35.328 28.928 64 64.576 64s64.512-28.672 64.512-64c0-35.392-28.928-64-64.512-64-35.712 0-64.576 28.608-64.576 64zM512.064 959.936l-384.064-288v-671.936c0-35.392 31.232-64.064 69.824-64.064h314.304v64.064h-284.032c-19.584 0-35.52 14.336-35.52 31.936v608.064l319.488 256 319.552-256v-256.064h64.512v288l-384.064 288z" />
<glyph unicode="&#xe669;" glyph-name="uniE669" d="M512.064 959.936l-384.064-288v-671.936c0-35.392 31.232-64.064 69.824-64.064h314.24v64.064h-283.968c-19.584 0-35.52 14.336-35.52 31.936v608.064l319.488 256 319.552-256v-256h64.512v287.936l-384.064 288zM703.104 320h-62.656v-128.064h-129.088v-64h129.152v-127.936h62.656v127.936h129.024v64h-129.024v128.064zM639.232 640c0 70.656-57.024 127.936-127.168 127.936-70.272 0-127.168-57.344-127.168-127.936 0-70.72 56.96-128.064 127.168-128.064s127.168 57.28 127.168 128.064zM447.552 640c0 35.328 28.928 64 64.576 64s64.512-28.672 64.512-64c0-35.392-28.928-64-64.512-64-35.712 0-64.576 28.608-64.576 64z" />
<glyph unicode="&#xe66a;" glyph-name="uniE66A" d="M544 959.936l-352-288v-671.936c0-35.392 28.672-64.064 64-64.064h576c35.392 0 64 28.672 64 64.064v671.936l-352 288zM832 31.936c0-17.6-14.4-31.936-32-31.936h-512c-17.664 0-32 14.336-32 31.936v608.064l288 256 288-256v-608.064zM416 640c0-70.72 57.344-128.064 128-128.064 70.784 0 128 57.344 128 128.064 0 70.656-57.28 127.936-128 127.936-70.656 0-128-57.344-128-127.936zM608 640c0-35.392-28.608-64-64-64-35.328 0-64 28.608-64 64 0 35.328 28.672 64 64 64 35.392 0 64-28.672 64-64z" />
<glyph unicode="&#xe66b;" glyph-name="uniE66B" d="M960 703.936v192c0 35.392-28.608 64-64 64l-768-256c-35.328 0-64-28.608-64-64v-640c0-35.328 28.672-64 64-64h832c35.392 0 64 28.672 64 64v640c0 35.392-28.608 64-64 64zM864 895.936c17.6 0 32-14.336 32-32v-160h-560l528 192zM960 255.936h-128v64h128v-64zM960 383.936h-192v-192h192v-160c0-17.664-14.4-32-32-32h-768c-17.664 0-32 14.336-32 32v576c0 17.664 14.336 32 32 32h768c17.6 0 32-14.336 32-32v-224z" />
<glyph unicode="&#xe66c;" glyph-name="uniE66C" d="M960 703.872h-128.384v145.152c0 61.184-46.976 110.848-104.96 110.848h-621.696c-52.992 0-96.448-41.728-103.488-95.68h-1.472v-864.32c0-35.392 28.608-64 64-64h896c35.264 0 64 28.608 64 64v640c0 35.392-28.736 64-64 64zM64 767.872v96c0 17.664 14.336 32 32 32h640c17.6 0 32-14.336 32-32v-159.68h-704v63.68zM960 31.872c0-17.728-14.4-32-32-32h-832c-17.664 0-32 14.272-32 32v576c0 17.664 14.336 32 32 32h832c17.6 0 32-14.336 32-32v-576zM799.488 448.384c-52.992 0-96-43.008-96-96s43.008-96 96-96 96 43.008 96 96-43.008 96-96 96zM800 319.744c-17.728 0-32 14.4-32 32s14.272 32 32 32c17.6 0 32-14.4 32-32s-14.4-32-32-32z" />
<glyph unicode="&#xe66d;" glyph-name="uniE66D" d="M878.144 543.936c10.496 20.416 17.856 41.6 17.856 64 0 123.712-171.904 224-384 224s-384-100.288-384-224c0-22.4 7.36-43.584 17.792-64-10.432-20.352-17.792-41.536-17.792-64 0-22.4 7.36-43.584 17.856-64-10.496-20.416-17.856-41.6-17.856-64s7.36-43.648 17.792-64c-10.432-20.352-17.792-41.536-17.792-64 0-123.712 171.904-224 384-224s384 100.288 384 224c0 22.464-7.36 43.648-17.856 64 10.496 20.352 17.856 41.6 17.856 64s-7.36 43.584-17.856 64c10.496 20.416 17.856 41.6 17.856 64 0 22.464-7.36 43.648-17.856 64zM512 63.936c-176.768 0-320 71.616-320 160 0 1.28 0.704 2.432 0.704 3.712 68.864-60.096 186.112-99.712 319.296-99.712 133.12 0 250.368 39.616 319.232 99.712 0.128-1.28 0.768-2.432 0.768-3.712 0-88.384-143.232-160-320-160zM512 191.936c-176.768 0-320 71.616-320 160 0 1.28 0.704 2.432 0.768 3.712 68.864-60.096 186.048-99.712 319.232-99.712 133.12 0 250.368 39.616 319.232 99.712 0-1.28 0.768-2.432 0.768-3.712 0-88.384-143.232-160-320-160zM512 319.936c-176.768 0-320 71.616-320 160 0 1.28 0.64 2.432 0.704 3.712 68.864-60.096 186.112-99.712 319.296-99.712 133.12 0 250.368 39.616 319.232 99.712 0.128-1.28 0.768-2.432 0.768-3.712 0-88.384-143.232-160-320-160zM512 447.936c-176.768 0-320 71.616-320 160s143.232 160 320 160 320-71.616 320-160-143.232-160-320-160z" />
<glyph unicode="&#xe66e;" glyph-name="uniE66E" d="M896 703.936c0 106.048-171.904 192-384 192s-384-85.952-384-192c0-10.944 0-575.936 0-575.936s0 0 0-0.064v-35.072c30.656-90.752 193.856-156.928 384-156.928s353.344 66.176 384 156.928c0 0 0 600.128 0 611.072zM832 127.936c0-70.656-143.232-128-320-128-176.704 0-320 57.344-320 128v86.144c68.736-51.904 186.24-86.144 320-86.144s251.264 34.304 320 86.144v-86.144zM832 319.936c0-70.656-143.232-128-320-128-176.704 0-320 57.344-320 128v86.144c68.736-51.904 186.24-86.144 320-86.144s251.264 34.24 320 86.144v-86.144zM832 511.936c0-70.656-143.232-128-320-128-176.704 0-320 57.344-320 128v86.144c68.736-51.904 186.24-86.144 320-86.144s251.264 34.24 320 86.144v-86.144zM512 575.936c-176.768 0-320 57.344-320 128s143.232 128 320 128 320-57.344 320-128-143.232-128-320-128z" />
<glyph unicode="&#xe66f;" glyph-name="uniE66F" d="M832 319.936v448c0 35.328-28.608 64-64 64h-704c-35.328 0-64-28.672-64-64v-448c0-35.328 28.672-64 64-64h704c35.392 0 64 28.672 64 64zM736 319.936h-640c-17.664 0-32 14.336-32 32v384c0 17.664 14.336 32 32 32h640c17.6 0 32-14.336 32-32v-384c0-17.664-14.4-32-32-32zM960 639.936h-64v-64h32c17.6 0 32-14.336 32-32v-384c0-17.664-14.4-32-32-32h-640c-17.664 0-32 14.336-32 32v32h-64v-64c0-35.392 28.672-64 64-64h704c35.392 0 64 28.608 64 64v448c0 35.392-28.608 64-64 64zM416 703.936c-88.384 0-160-71.616-160-160s71.616-160 160-160 160 71.616 160 160-71.616 160-160 160zM416 447.936c-53.056 0-96 43.008-96 96s42.944 96 96 96c52.992 0 96-43.008 96-96s-43.008-96-96-96z" />
<glyph unicode="&#xe670;" glyph-name="uniE670" d="M376.832 580.096c0 21.056 18.816 35.84 42.816 35.84 35.648 0 62.848-26.112 62.848-26.112l22.464 44.16c0 0-24 26.56-70.464 30.72v38.784h-34.432v-39.552c-44.48-7.552-75.328-41.28-75.328-84.672 0-90.496 135.36-85.44 135.36-135.936 0-24.448-19.648-36.224-41.28-36.224-40.064 0-70.848 31.616-70.848 31.616l-28.032-40.896c0 0 28.416-33.28 80.128-39.552v-38.72h34.432v38.72c48.832 6.656 77.312 43.392 77.312 86.336 0 94.272-134.976 85.376-134.976 135.488zM832 255.936v512c0 35.328-28.608 64-64 64h-704c-35.328 0-64-28.672-64-64v-512c0-35.328 28.672-64 64-64h704c35.392 0 64 28.672 64 64zM736 255.936h-640c-17.664 0-32 14.336-32 32v448c0 17.664 14.336 32 32 32h640c17.6 0 32-14.336 32-32v-448c0-17.664-14.4-32-32-32zM960 639.936l-64-0.064v-63.936h32c17.6 0 32-14.336 32-32v-448c0-17.6-14.4-32-32-32h-640c-17.664 0-32 14.4-32 32v32h-64v-64c0-35.328 28.672-64 64-64h704c35.392 0 64 28.672 64 64v512c0 35.392-28.608 64-64 64z" />
<glyph unicode="&#xe671;" glyph-name="uniE671" d="M64 511.872h-64v-127.936h64v127.936zM896 959.936h-768c-70.656 0-128-57.344-128-128v-192.064h64v192.064c0 35.328 28.672 63.936 64 63.936h768c35.392 0 64-28.608 64-63.936v-768.064c0-35.328-28.608-64-64-64h-768c-35.328 0-64 28.672-64 64v192h-64v-192c0-70.656 57.344-127.936 128-127.936h768c70.72 0 128 57.28 128 127.936v768.064c0 70.656-57.28 128-128 128zM512 191.936c141.376 0 256 114.624 256 255.936 0 141.44-114.624 256-256 256s-256-114.56-256-256c0-141.312 114.624-255.936 256-255.936zM512 639.872c105.984 0 192-85.952 192-192 0-105.984-86.016-192-192-192-106.048 0-192 86.016-192 192 0 106.048 85.952 192 192 192zM832 63.872c35.392 0 64 28.672 64 64.064v639.936c0 35.392-28.608 64.064-64 64.064h-640c-35.328 0-64-28.672-64-64.064v-639.936c0-35.392 28.672-64.064 64-64.064h640zM192 735.872c0 17.664 14.336 32 32 32h576c17.6 0 32-14.336 32-32v-575.936c0-17.728-14.4-32-32-32h-576c-17.664 0-32 14.272-32 32v575.936z" />
<glyph unicode="&#xe672;" glyph-name="uniE672" d="M384 256h-256v-64.064h256v64.064zM640 256h-192v-64.064h192v64.064zM0 447.936v-319.936c0-70.72 57.344-128.064 128-128.064h768c70.72 0 128 57.344 128 128.064v384h-1024v-64.064zM64 447.936h896v-319.936c0-35.392-28.608-64.064-64-64.064h-768c-35.328 0-64 28.672-64 64.064v319.936zM896 896h-768c-70.656 0-128-57.344-128-128.064v-128h1024v128c0 70.656-57.28 128.064-128 128.064zM960 704h-896v63.936c0 35.392 28.672 64.064 64 64.064h768c35.392 0 64-28.672 64-64.064v-63.936z" />
<glyph unicode="&#xe673;" glyph-name="uniE673" d="M384 256h-256v-64.064h256v64.064zM640 256h-192v-64.064h192v64.064zM896 896h-768c-70.656 0-128-57.344-128-128.064v-639.936c0-70.72 57.344-128.064 128-128.064h768c70.656 0 128 57.344 128 128.064v639.936c0 70.656-57.344 128.064-128 128.064zM960 128c0-35.392-28.608-64.064-64-64.064h-768c-35.328 0-64 28.672-64 64.064v319.936h896v-319.936zM960 512h-896v127.936h896v-127.936zM960 704h-896v63.936c0 35.392 28.672 64.064 64 64.064h768c35.392 0 64-28.672 64-64.064v-63.936z" />
<glyph unicode="&#xe674;" glyph-name="uniE674" d="M384 256h-256v-64.064h256v64.064zM0 447.936v-319.936c0-70.72 57.344-128.064 128-128.064h768c70.72 0 128 57.344 128 128.064v384h-1024v-64.064zM64 447.936h896v-319.936c0-35.392-28.608-64-64-64h-768c-35.328 0-64 28.608-64 64v319.936zM896 896h-768c-70.656 0-128-57.344-128-128.064v-128h1024v128c0 70.656-57.28 128.064-128 128.064zM960 704h-896v63.936c0 35.392 28.672 64.064 64 64.064h768c35.392 0 64-28.672 64-64.064v-63.936z" />
<glyph unicode="&#xe675;" glyph-name="uniE675" d="M1024 832c0 70.656-57.28 128-128 128h-768c-70.656 0-128-57.344-128-128v-64.128c0-11.072 1.856-21.696 4.48-31.936-2.624-10.24-4.48-20.864-4.48-31.936v-640c0-70.656 57.344-128 128-128h768c70.72 0 128 57.344 128 128v640c0 11.072-1.856 21.696-4.48 31.936 2.624 10.24 4.48 20.864 4.48 31.936v64.128zM960 64c0-35.392-28.608-64-64-64h-768c-35.328 0-64 28.608-64 64v593.6c18.88-11.008 40.576-17.728 64-17.728h768c23.36 0 45.12 6.72 64 17.728v-593.6zM960 767.872c0-35.328-28.608-64-64-64h-768c-35.328 0-64 28.672-64 64v64.128c0 35.328 28.672 64 64 64h768c35.392 0 64-28.672 64-64v-64.128zM864 512h-128c-17.6 0-32-14.4-32-32 0-17.664 14.4-32.064 32-32.064h32c0-141.376-114.624-256-256-256s-256 114.624-256 256h32c17.664 0 32 14.4 32 32.064 0 17.6-14.336 32-32 32h-128c-17.664 0-32-14.4-32-32 0-17.664 14.336-32.064 32-32.064h32c0-176.704 143.296-320 320-320 176.768 0 320 143.296 320 320h32c17.6 0 32 14.4 32 32.064 0 17.6-14.4 32-32 32z" />
<glyph unicode="&#xe676;" glyph-name="uniE676" d="M567.68 695.552c-1.92 1.856-4.672 1.536-6.784 2.816-3.072 1.92-6.336 3.264-9.92 4.096-0.64 0.128-1.216-0.128-1.792 0-10.944 2.56-22.336 1.6-30.848-6.912l-190.016-189.12c-13.12-12.992-13.12-34.176 0-47.232s34.368-13.056 47.488 0l136.192 135.488v-498.816c0-17.664 14.336-32 32-32s32 14.336 32 32v496.832l134.144-133.504c13.12-13.056 34.368-13.056 47.488 0s13.12 34.24 0 47.232l-189.952 189.12zM800 831.872h-512c-17.664 0-32-14.336-32-32 0-17.6 14.336-31.936 32-31.936h512c17.6 0 32 14.336 32 31.936 0 17.664-14.4 32-32 32zM832 959.872h-576c-106.048 0-192-85.952-192-191.936v-640.064c0-105.984 85.952-192 192-192h576c105.984 0 192 86.016 192 192v640.064c0 105.984-86.016 191.936-192 191.936zM960 127.872c0-70.656-57.28-128-128-128h-576c-70.656 0-128 57.344-128 128v640.064c0 70.592 57.344 127.936 128 127.936h576c70.72 0 128-57.344 128-127.936v-640.064z" />
<glyph unicode="&#xe677;" glyph-name="uniE677" d="M800 127.936h-512c-17.664 0-32-14.336-32-32 0-17.6 14.336-31.936 32-31.936h512c17.6 0 32 14.336 32 31.936 0 17.664-14.4 32-32 32zM518.336 202.24c1.408-1.344 3.584-1.024 5.12-2.112 5.632-4.8 12.544-8.192 20.48-8.192 9.216 0 17.344 3.968 23.104 10.112 0.192 0.128 0.448 0.064 0.576 0.192l189.952 189.12c13.12 13.056 13.12 34.24 0 47.296s-34.368 13.056-47.488 0l-134.080-133.504v494.784c0 17.664-14.336 32-32 32-17.6 0-32-14.336-32-32v-496.832l-136.128 135.552c-13.12 13.056-34.432 13.056-47.488 0-13.12-13.056-13.12-34.24 0-47.296l189.952-189.12zM832 959.936h-576c-106.048 0-192-85.952-192-192v-640c0-105.984 85.952-192 192-192h576c105.984 0 192 86.016 192 192v640c0 106.048-86.016 192-192 192zM960 127.936c0-70.656-57.344-128-128-128h-576c-70.656 0-128 57.344-128 128v640c0 70.656 57.344 128 128 128h576c70.656 0 128-57.344 128-128v-640z" />
<glyph unicode="&#xe678;" glyph-name="uniE678" d="M956.224 594.496c4.48 9.344 4.992 20.352-0.896 30.016l-155.136 319.744c-5.76 9.6-15.872 13.632-26.752 14.592-1.792 0.32-3.456 1.088-5.44 1.088h-512c-1.984 0-3.712-0.768-5.568-1.152-10.752-0.896-20.928-4.928-26.752-14.528l-155.072-319.744c-5.824-9.6-5.376-20.608-0.896-30.016-1.792-5.952-3.712-11.968-3.712-18.56v-575.936c0-35.392 28.672-64.064 64-64.064h768c35.392 0 64 28.672 64 64.064v575.936c0 6.592-1.856 12.608-3.776 18.56zM748.096 895.936l124.096-256h-242.816l-42.752 256h161.472zM512 895.936l64-256h-128l64 256zM448 575.936h128v-255.936h-128v255.936zM275.904 895.936h161.472l-42.688-256h-242.944l124.16 256zM896 31.936c0-17.6-14.4-31.936-32-31.936h-704c-17.664 0-32 14.336-32 31.936v512c0 17.664 14.336 32 32 32h224v-320h256v320h224c17.6 0 32-14.336 32-32v-512z" />
<glyph unicode="&#xe679;" glyph-name="uniE679" d="M956.224 594.496c4.48 9.344 4.992 20.352-0.896 30.016l-155.136 319.744c-5.76 9.6-15.872 13.632-26.752 14.592-1.792 0.32-3.456 1.088-5.44 1.088h-512c-1.984 0-3.712-0.768-5.568-1.152-10.752-0.896-20.928-4.928-26.752-14.528l-155.072-319.744c-5.824-9.6-5.376-20.608-0.896-30.016-1.792-5.952-3.712-11.968-3.712-18.56v-575.936c0-35.392 28.672-64.064 64-64.064h768c35.392 0 64 28.672 64 64.064v575.936c0 6.592-1.856 12.608-3.776 18.56zM748.096 895.936l124.096-256h-242.816l-42.752 256h161.472zM512 895.936l64-256h-128l64 256zM448 575.936h128v-255.936h-128v255.936zM275.904 895.936h161.408l-42.688-256h-242.88l124.16 256zM896 31.936c0-17.6-14.4-31.936-32-31.936h-704c-17.664 0-32 14.336-32 31.936v512c0 17.664 14.336 32 32 32h224v-320h256v320h224c17.6 0 32-14.336 32-32v-512zM384 63.936h64v64h-64v-64zM192 63.936h128v64h-128v-64z" />
<glyph unicode="&#xe67a;" glyph-name="uniE67A" d="M750.272 767.872c11.008 18.88 17.728 40.576 17.728 64 0 70.72-57.344 128-128 128-38.528 0-72.512-17.344-96-44.096-23.488 26.752-57.536 44.096-96 44.096-70.72 0-128-57.28-128-128 0-23.424 6.72-45.12 17.728-64h-273.728v-192h64v-640h832v640h64v192h-273.728zM640 895.808c35.392 0 64-28.672 64-64 0-35.392-28.608-64-64-64s-64 28.608-64 64c0 35.328 28.608 64 64 64zM448 895.808c35.328 0 64-28.672 64-64 0-35.392-28.672-64-64-64-35.392 0-64 28.608-64 64 0 35.328 28.672 64 64 64zM512-0.128h-320v256.064h320v-256.064zM512 319.936h-320v255.936h320v-255.936zM896-0.128h-320v256.064h320v-256.064zM896 319.936h-320v255.936h320v-255.936zM960 639.872h-832v64h832v-64z" />
<glyph unicode="&#xe67b;" glyph-name="uniE67B" d="M896 832h-768c-70.656 0-128-57.344-128-128.064v-576c0-70.656 57.344-128 128-128h768c70.72 0 128 57.344 128 128v576c0 70.656-57.28 128.064-128 128.064zM960 127.936c0-35.328-28.608-64-64-64h-768c-35.328 0-64 28.672-64 64v576c0 35.392 28.672 64 64 64h768c35.392 0 64-28.608 64-64v-576zM608 703.936c-33.856 0-65.856-6.912-96-17.6-30.144 10.688-62.144 17.6-96 17.6-159.040 0-288-128.96-288-288 0-158.976 128.96-288 288-288 33.856 0 65.856 6.912 96 17.6 30.144-10.688 62.144-17.6 96-17.6 158.976 0 288 129.024 288 288 0 159.040-129.024 288-288 288zM416 191.936c-123.712 0-224 100.288-224 224 0 123.776 100.288 224 224 224 3.968 0 7.68-0.96 11.648-1.152-65.152-52.8-107.648-132.48-107.648-222.848s42.496-169.984 107.584-222.784c-3.904-0.192-7.616-1.216-11.584-1.216zM608 191.936c-123.712 0-224 100.288-224 224 0 123.776 100.288 224 224 224 123.776 0 224-100.224 224-224 0-123.712-100.224-224-224-224z" />
<glyph unicode="&#xe67c;" glyph-name="uniE67C" d="M896 832h-768c-70.656 0-128-57.344-128-128.064v-576c0-70.656 57.344-128 128-128h768c70.656 0 128 57.344 128 128v576c0 70.656-57.344 128.064-128 128.064zM960 127.936c0-35.328-28.608-64-64-64h-176.128l240.128 240.064v-176.064zM960 399.872l-335.872-335.936h-496.128c-35.328 0-64 28.672-64 64v576c0 35.392 28.672 64 64 64h768c35.392 0 64-28.608 64-64v-304.064zM512 639.936c-106.048 0-192-85.952-192-191.936 0-106.048 85.952-192 192-192 105.984 0 192 85.952 192 192 0 105.984-86.016 191.936-192 191.936zM512 320c-70.656 0-128 57.28-128 128 0 70.656 57.344 128 128 128s128-57.344 128-128c0-70.784-57.344-128-128-128z" />
<glyph unicode="&#xe67d;" glyph-name="uniE67D" d="M832 767.936h-128v32c0 88.384-71.616 160-160 160h-64c-88.384 0-160-71.616-160-160v-32h-128c-35.328 0-64-28.608-64-64v-704c0-35.328 28.672-64 64-64h640c35.392 0 64 28.672 64 64v704c0 35.392-28.608 64-64 64zM384 799.936c0 52.992 42.944 96 96 96h64c53.056 0 96-43.008 96-96v-32h-256v32zM832 31.936c0-17.6-14.4-32-32-32h-576c-17.664 0-32 14.4-32 32v96h640v-96zM832 191.936h-640v480c0 17.664 14.336 32 32 32h96v-128h64v128h256v-128h64v128h96c17.6 0 32-14.336 32-32v-480z" />
<glyph unicode="&#xe67e;" glyph-name="uniE67E" d="M832 831.936h-131.264c-14.72 73.024-79.36 128-156.8 128h-64c-77.376 0-141.952-54.976-156.8-128h-131.136c-35.328 0-64-28.608-64-63.936v-768.064c0-35.328 28.672-64 64-64h640c35.392 0 64 28.672 64 64v768.064c0 35.328-28.608 63.936-64 63.936zM480 895.936h64c41.664 0 76.288-26.88 89.536-64h-243.072c13.248 37.12 47.872 64 89.536 64zM832 31.936c0-17.664-14.4-32-32-32h-576c-17.664 0-32 14.336-32 32v96h640v-96zM832 191.936h-640v544c0 17.664 14.336 32.064 32 32.064h96v-192.064h64v192.064h256v-192.064h64v192.064h96c17.6 0 32-14.4 32-32.064v-544z" />
<glyph unicode="&#xe67f;" glyph-name="uniE67F" d="M320 64c-35.328 0-64-28.672-64-64.064 0-35.328 28.672-64 64-64s64 28.672 64 64c0 35.392-28.672 64.064-64 64.064zM768 64c-35.392 0-64-28.672-64-64.064 0-35.328 28.608-64 64-64s64 28.672 64 64c0 35.392-28.608 64.064-64 64.064zM960 320c35.392 0 64 28.608 64 63.936v512.064c0 35.328-28.608 63.936-64 63.936h-960v-63.936h128v-768.064h896v64h-832v128.064h768zM192 863.936c0 17.664 14.336 32.064 32 32.064h704c17.6 0 32-14.4 32-32.064v-448c0-17.664-14.4-32-32-32h-704c-17.664 0-32 14.336-32 32v448z" />
<glyph unicode="&#xe680;" glyph-name="uniE680" d="M320 64c-35.328 0-64-28.672-64-64.064 0-35.328 28.672-64 64-64s64 28.672 64 64c0 35.392-28.672 64.064-64 64.064zM768 64c-35.392 0-64-28.672-64-64.064 0-35.328 28.608-64 64-64s64 28.672 64 64c0 35.392-28.608 64.064-64 64.064zM896 320c35.392 0 64 28.608 64 63.936l64 512.064c0 35.328-28.608 63.936-64 63.936h-960v-63.936h128v-768.064h832v64h-768v128.064h704zM192 863.936c0 17.664 14.336 32.064 32 32.064h704c17.6 0 32-14.4 32-32.064l-64-448c0-17.664-14.4-32-32-32h-640c-17.664 0-32 14.336-32 32v448z" />
<glyph unicode="&#xe681;" glyph-name="uniE681" d="M458.432 694.528c-12.928-12.928-12.928-33.856 0-46.784l125.312-125.376c0.384-0.384 0.896-0.192 1.28-0.512 5.824-6.016 13.824-9.92 22.976-9.92 0.128 0 0.128 0.064 0.256 0.064 1.024-0.064 1.856 0.512 2.88 0.576 6.464 0.64 12.224 3.136 16.896 6.976 1.344 1.024 3.264 0.64 4.48 1.856l126.016 126.016c12.992 12.992 12.992 34.048 0 47.040-12.992 12.928-33.984 12.928-46.976 0l-71.552-71.552v305.024c0 17.664-14.4 32-32 32s-32-14.336-32-32v-304.192l-70.784 70.784c-12.928 12.928-33.856 12.928-46.784 0zM576 63.936c0-70.656 57.28-128 128-128s128 57.344 128 128-57.28 128-128 128-128-57.344-128-128zM704 127.936c35.392 0 64-28.608 64-64 0-35.328-28.608-64-64-64s-64 28.672-64 64c0 35.392 28.608 64 64 64zM1023.488 802.176c-0.128 1.536-0.512 3.008-0.896 4.544-0.64 3.008-1.472 5.76-3.008 8.384-0.384 0.64-0.768 1.152-1.152 1.664-1.984 3.072-4.224 5.76-7.104 8-0.64 0.448-1.152 0.768-1.728 1.152-2.752 1.856-5.632 3.264-8.768 4.224-0.896 0.256-1.344 0.832-2.24 1.024-1.344 0.384-2.752 0.064-4.096 0.256-0.896 0.064-1.6 0.512-2.496 0.512h-5.76c-0.512 0-0.896 0.064-1.28 0h-280.96v-64h243.264l-77.12-322.304-678.144-60.928v383.232h320v64h-320v64h32c17.664 0 32 14.4 32 32 0 17.664-14.336 32-32 32h-192c-17.664 0-32-14.336-32-32 0-17.6 14.336-32 32-32h96v-672c0-17.664 14.336-32 32-32h800c17.6 0 32 14.336 32 32s-14.4 32-32 32h-768v66.816l695.872 62.656c0.512-0.128 0.896-0.576 1.472-0.704 18.112-4.672 36.864 5.76 41.728 23.36l91.648 382.656c0.512 1.6 0.128 3.264 0.384 4.864 0.256 1.536 0.896 2.88 0.896 4.352 0 0.832-0.384 1.472-0.512 2.24zM192 63.936c0-70.656 57.344-128 128-128s128 57.344 128 128-57.344 128-128 128-128-57.344-128-128zM320 127.936c35.328 0 64-28.608 64-64 0-35.328-28.672-64-64-64s-64 28.672-64 64c0 35.392 28.672 64 64 64z" />
<glyph unicode="&#xe682;" glyph-name="uniE682" d="M576 63.936c0-70.656 57.28-128 128-128s128 57.344 128 128-57.28 128-128 128-128-57.344-128-128zM704 127.936c35.392 0 64-28.608 64-64 0-35.328-28.608-64-64-64s-64 28.672-64 64c0 35.392 28.608 64 64 64zM192 63.936c0-70.656 57.344-128 128-128s128 57.344 128 128-57.344 128-128 128-128-57.344-128-128zM320 127.936c35.328 0 64-28.608 64-64 0-35.328-28.672-64-64-64s-64 28.672-64 64c0 35.392 28.672 64 64 64zM1023.488 802.176c-0.128 1.536-0.512 3.008-0.896 4.544-0.64 3.008-1.472 5.76-3.008 8.384-0.384 0.64-0.768 1.152-1.152 1.664-1.984 3.072-4.224 5.76-7.104 8-0.64 0.448-1.152 0.768-1.728 1.152-2.752 1.856-5.632 3.264-8.768 4.224-0.896 0.256-1.344 0.832-2.24 1.024-1.344 0.384-2.752 0.064-4.096 0.256-0.896 0.064-1.6 0.512-2.496 0.512h-5.76c-0.512 0-0.896 0.064-1.28 0h-182.848l-185.088 108.864c-24.896 25.728-65.216 25.792-90.048 0l-150.464-108.864h-184.512v64h32c17.664 0 32 14.4 32 32 0 17.664-14.336 32-32 32h-192c-17.664 0-32-14.336-32-32 0-17.6 14.336-32 32-32h96v-672c0-17.664 14.336-32 32-32h800c17.6 0 32 14.336 32 32s-14.4 32-32 32h-768v66.816l695.872 62.656c0.512-0.128 0.896-0.576 1.472-0.704 18.112-4.672 36.864 5.76 41.728 23.36l91.648 382.656c0.512 1.6 0.128 3.264 0.384 4.864 0.256 1.536 0.896 2.88 0.896 4.352 0 0.832-0.384 1.472-0.512 2.24zM571.968 894.080l105.664-62.144h-198.208l92.544 62.144zM870.144 445.632l-678.144-60.928v383.232h755.264l-77.12-322.304z" />
</font>
</defs>
</svg>
